Реклама показывается только незарегистрированным пользователям. Вход или Регистрация

Нет звука в видео, скачанном с Youtube

Помощь новичкам, часто задаваемые вопросы и ответы по телевизорам LG на webOS. Новичкам читать обязательно.

Re: LG 42LB650V Audio AAC формат не воспроизводится

Сообщение Alex_Serena » 20 дек 2015, 01:59

Архивариус писал(а):Перепутал, подумал вы с вконтакте качаете.
Дочки качают с контакта. Я тоже, но редко. В основном с ютуба. А для ютуба есть какая то прога чтобы потом на этом телеке всё нормально казало и говорило ?
Alex_Serena

 
Сообщения: 20
Зарегистрирован: 18 фев 2015, 17:32
Благодарил (а): 1 раз.
Поблагодарили: 0 раз.
Телевизор: LG 42LB650V

Re: LG 42LB650V Audio AAC формат не воспроизводится

Спонсор » 20 дек 2015, 01:59

Реклама показывается только незарегистрированным пользователям. Войти или Зарегистрироваться
Спонсор

 
Сообщения: 100
Зарегистрирован: 15 июл 2014, 19:43
Благодарил (а): 0 раз.
Поблагодарили: 0 раз.

Re: LG 42LB650V Audio AAC формат не воспроизводится

Сообщение Архивариус » 20 дек 2015, 14:01

Alex_Serena
Попробуйте http://ru.savefrom.net/, если проблема решится, дайте знать.
Архивариус

 
Сообщения: 4667
Зарегистрирован: 29 июл 2010, 21:22
Благодарил (а): 452 раз.
Поблагодарили: 570 раз.
Телевизор: LG 55UB950 24MT57S

Re: LG 42LB650V Audio AAC формат не воспроизводится

Сообщение tessi » 20 дек 2015, 15:11

Архивариус
звук появился
tessi
Лучший пользователь форума 2016
 
Сообщения: 5821
Зарегистрирован: 08 авг 2014, 11:20
Благодарил (а): 113 раз.
Поблагодарили: 564 раз.
Телевизор: LG 49UB850V 24LH480U

Re: LG 42LB650V Audio AAC формат не воспроизводится

Сообщение Alex_Serena » 21 дек 2015, 00:21

Архивариус писал(а):Alex_Serena
Попробуйте http://ru.savefrom.net/, если проблема решится, дайте знать.
Большое Вам спасибо за ссылку !
Скачал сначала и установил плагин для браузеров savefrom.net, видео скачал с сайта ютуба и звук был несмотря на то что в свойствах стоит Variable.
---
Audio
ID : 2
Format : AAC
Format/Info : Advanced Audio Codec
Format version : Version 4
Format profile : LC
Format settings, SBR : No
Codec ID : 40
Duration : 4mn 37s
Bit rate mode : Variable
Bit rate : 192 Kbps
Maximum bit rate : 201 Kbps
Channel(s) : 2 channels
Channel positions : Front: L R
Sampling rate : 44.1 KHz
Stream size : 6.36 MiB (9%)
Title : IsoMedia File Produced by Google, 5-11-2011
Encoded date : UTC 2013-12-09 20:25:45
Tagged date : UTC 2013-12-09 20:25:47
---

А потом скачал по ссылке отдельное приложение Ummy Video Downloader.
http://videodownloader.ummy.net/ru/?vid ... what-block
Очень он мне понравился в удобстве работы ! Вставляешь ссылку, выбираешь разрешение и вперёд! И звук в видео с той самой Constant и телек его проигрывает.
---
Audio
ID : 2
Format : AAC
Format/Info : Advanced Audio Codec
Format version : Version 4
Format profile : LC
Format settings, SBR : No
Codec ID : 40
Duration : 2mn 31s
Bit rate mode : Constant
Bit rate : 126 Kbps
Channel(s) : 2 channels
Channel positions : Front: L R
Sampling rate : 44.1 KHz
Stream size : 2.27 MiB (14%)
---
Alex_Serena

 
Сообщения: 20
Зарегистрирован: 18 фев 2015, 17:32
Благодарил (а): 1 раз.
Поблагодарили: 0 раз.
Телевизор: LG 42LB650V

Re: Нет звука в видео, скачанном с Youtube

Сообщение droider » 31 дек 2016, 20:33

Алекс, попробуйте программу Видеодер, в ней можно указать настройки скачивания.
droider

 
Сообщения: 2
Зарегистрирован: 31 окт 2016, 19:17
Благодарил (а): 0 раз.
Поблагодарили: 0 раз.

Re: Нет звука в видео, скачанном с Youtube

Сообщение Архивариус » 31 дек 2016, 23:18

droider
Зачем Alex_Serena эта программа Видеодер, которая предназначена для смартфонов на платформе Android?
Архивариус

 
Сообщения: 4667
Зарегистрирован: 29 июл 2010, 21:22
Благодарил (а): 452 раз.
Поблагодарили: 570 раз.
Телевизор: LG 55UB950 24MT57S

Re: Нет звука в видео, скачанном с Youtube

Сообщение droider » 31 дек 2016, 23:20

Да, не заметил. Я думал, она и для ПК. На сайте советуют эмулятор ставить. Поэтому в принципе Ummy Video Downloader тоже подойдет.
droider

 
Сообщения: 2
Зарегистрирован: 31 окт 2016, 19:17
Благодарил (а): 0 раз.
Поблагодарили: 0 раз.

Пред.

Вернуться в webOS-телевизоры - Помощь



 


  • Похожие темы
    Ответы
    Просмотры
    Последнее сообщение

Кто сейчас на конференции

Сейчас этот форум просматривают: нет зарегистрированных пользователей и гости: 1