Реклама показывается только незарегистрированным пользователям. Вход или Регистрация

Просмотр контента в формате HDR (кино, сериалы, игры, спутниковое ТВ)

Обсуждение телевизоров LG на webOS

Re: Просмотр контента в формате HDR (кино, сериалы, игры, спутниковое

Сообщение Lex Raven » 11 апр 2017, 09:24

Так... Пытаюсь разобраться. HDR включается только при "Использовать параметры цветопередачи по умолчанию", а в настройках должно стоять Ycbcr422 и 10bit (хотя мой телек 8-битный).
Хотя нет, все равно что там будет стоять, все равно в тени.
Картинка на телеке становится блеклой (как при воспроизведении HDR кино на обычном мониторе) или по умолчанию в Resident Evil-7.
Нашел настройку "параметров цветопередачи" (в поиске наберите Управление Цветом - там и будут профили), но глубже не полез, ссыкотно !
Драйвер Nvidia 381.65 !!
Емана !!!! Читаю уже час ангельские форумы, в этом новом апдейте кодеки Dolby Atmos!! Если у вас нормальная система 5.1 с ресивером - это что то с чем то !!
От демок я просто в восторге. Реально на порядок круче, чем DTS.. Жаль фильмов тока мало пока в этом формате.
Народец пишет, что нормальные драйвера выйдут сегодня аккурат
I believe gpu vendors will release new drivers that support WDDM 2.2 once Creators Update is out on 04/11. Then hardware HEVC capable gpu's will be able to output HDR video.
Ибо по умолчанию Win10 использует не корректное цветовое пространство. In HDR mode the display expects DCI-P3 color space and windows is sending sRGB.
Ждем новых драйверов.
Semper Fi, Motherfucker !!!
Lex Raven

 
Сообщения: 44
Зарегистрирован: 17 дек 2016, 15:09
Благодарил (а): 3 раз.
Поблагодарили: 8 раз.
Телевизор: LG 65uh620v

Re: Просмотр контента в формате HDR (кино, сериалы, игры, спутниковое

Спонсор » 11 апр 2017, 09:24

Реклама показывается только незарегистрированным пользователям. Войти или Зарегистрироваться
Спонсор

 
Сообщения: 100
Зарегистрирован: 15 июл 2014, 14:43
Благодарил (а): 0 раз.
Поблагодарили: 0 раз.

Re: Просмотр контента в формате HDR (кино, сериалы, игры, спутниковое

Сообщение VasiliyM6 » 18 апр 2017, 19:09

Всем привет,
У меня 55UH770V уже с полгода где-то.
Вопрос про проигрывание 4K фильма встроенным плеером. Скачал несколько фильмов с торрента http://torrent-lynx.ru/, все показывали нормально. А сегодня столкнулся, что файл вроде со схожими параметрами как и ранее , но телевизор не показывает его - ни через DLNA, ни с флешки. Есть какие-то ограничения по кодекам, форматам для встроенного плеера?
Вот параметры файла, который показывает ТВ (http://torrent-lynx.ru/details.php?id=61876):

Код: Выделить всё
General
Unique ID                                : 247547004737056368971787125974581754554 (0xBA3BD1A3DDB187E38998F08D5AB9BABA)
Complete name                            : Z:\4K-UHD\Miss.Peregrines.Home.For.Peculiar.Children.2016.2160p.UHD.BluRay.HDR.DTS-HD.MA7.1.x265-ULTRAHDCLUB.mkv
Format                                   : Matroska
Format version                           : Version 4 / Version 2
File size                                : 30.7 GiB
Duration                                 : 2 h 6 min
Overall bit rate                         : 34.7 Mb/s
Movie name                               : Miss Peregrine's Home for Peculiar Children (2016) - Release for ULTRAHDCLUB
Encoded date                             : UTC 2017-03-03 20:04:29
Writing application                      : mkvmerge v9.5.0 ('Quiet Fire') 64bit
Writing library                          : libebml v1.3.4 + libmatroska v1.4.5
Video
ID                                       : 1
Format                                   : HEVC
Format/Info                              : High Efficiency Video Coding
Format profile                           : Main 10@L5@High
Codec ID                                 : V_MPEGH/ISO/HEVC
Duration                                 : 2 h 6 min
Bit rate                                 : 28.9 Mb/s
Width                                    : 3 840 pixels
Height                                   : 2 076 pixels
Display aspect ratio                     : 1.85:1
Frame rate mode                          : Constant
Frame rate                               : 23.976 (24000/1001) FPS
Original frame rate                      : 23.976 (23976/1000) FPS
Color space                              : YUV
Chroma subsampling                       : 4:2:0 (Type 2)
Bit depth                                : 10 bits
Bits/(Pixel*Frame)                       : 0.151
Stream size                              : 25.7 GiB (83%)
Title                                    : Miss Peregrine's Home for Peculiar Children (2016) - Release for ULTRAHDCLUB
Writing library                          : x265 2.2+2-998d4520d1cf:[Windows][GCC 6.2.0][64 bit] 10bit
Encoding settings                        : cpuid=1173503 / frame-threads=5 / numa-pools=16 / wpp / no-pmode / no-pme / no-psnr / no-ssim / log-level=2 / input-csp=1 / input-res=3840x2076 / interlace=0 / total-frames=0 / level-idc=0 / high-tier=1 / uhd-bd=0 / ref=1 / no-allow-non-conformance / repeat-headers / annexb / aud / hrd / info / hash=0 / no-temporal-layers / open-gop / min-keyint=23 / keyint=250 / bframes=3 / b-adapt=2 / b-pyramid / bframe-bias=0 / rc-lookahead=40 / lookahead-slices=0 / scenecut=40 / no-intra-refresh / ctu=32 / min-cu-size=8 / no-rect / no-amp / max-tu-size=32 / tu-inter-depth=1 / tu-intra-depth=1 / limit-tu=0 / rdoq-level=2 / signhide / no-tskip / nr-intra=0 / nr-inter=0 / no-constrained-intra / strong-intra-smoothing / max-merge=2 / limit-refs=0 / no-limit-modes / me=2 / subme=7 / merange=57 / temporal-mvp / weightp / weightb / no-analyze-src-pics / no-deblock / no-sao / no-sao-non-deblock / rd=6 / no-early-skip / no-rskip / fast-intra / no-tskip-fast / no-cu-lossless / no-b-intra / rdpenalty=0 / psy-rd=4.00 / psy-rdoq=8.00 / no-rd-refine / analysis-mode=0 / no-lossless / cbqpoffs=0 / crqpoffs=0 / rc=crf / crf=21.8 / qcomp=0.80 / qpstep=1 / stats-write=0 / stats-read=0 / vbv-maxrate=100000 / vbv-bufsize=100000 / vbv-init=0.9 / crf-max=0.0 / crf-min=0.0 / ipratio=1.10 / pbratio=1.00 / aq-mode=3 / aq-strength=1.00 / no-cutree / zone-count=0 / no-strict-cbr / qg-size=32 / no-rc-grain / qpmax=51 / qpmin=0 / sar=0 / overscan=0 / videoformat=5 / range=0 / colorprim=9 / transfer=16 / colormatrix=9 / chromaloc=1 / chromaloc-top=2 / chromaloc-bottom=2 / display-window=0 / master-display=G(13250,34500)B(7500,3000)R(34000,16000)WP(15635,16450)L(10000000,0) / max-cll=0,0 / min-luma=0 / max-luma=1023 / log2-max-poc-lsb=8 / vui-timing-info / vui-hrd-info / slices=1 / opt-qp-pps / opt-ref-list-length-pps / no-multi-pass-opt-rps / scenecut-bias=0.05
Language                                 : English
Default                                  : Yes
Forced                                   : No
Color range                              : Limited
Color primaries                          : BT.2020
Transfer characteristics                 : SMPTE ST 2084
Matrix coefficients                      : BT.2020 non-constant
Mastering display color primaries        : R: x=0.680000 y=0.320000, G: x=0.265000 y=0.690000, B: x=0.150000 y=0.060000, White point: x=0.312700 y=0.329000
Mastering display luminance              : min: 0.0000 cd/m2, max: 1000.0000 cd/m2

Audio #1
ID                                       : 2
Format                                   : DTS
Format/Info                              : Digital Theater Systems
Mode                                     : 16
Format settings, Endianness              : Big
Codec ID                                 : A_DTS
Duration                                 : 2 h 6 min
Bit rate mode                            : Constant
Bit rate                                 : 768 kb/s
Channel(s)                               : 6 channels
Channel positions                        : Front: L C R, Side: L R, LFE
Sampling rate                            : 48.0 kHz
Frame rate                               : 93.750 FPS (512 spf)
Bit depth                                : 24 bits
Compression mode                         : Lossy
Stream size                              : 697 MiB (2%)
Title                                    : DTS 5.1 @ 768 kbps - DUB, Blu-ray EUR
Language                                 : Russian
Default                                  : Yes
Forced                                   : No

Audio #2
ID                                       : 3
Format                                   : AC-3
Format/Info                              : Audio Coding 3
Format settings, Endianness              : Big
Codec ID                                 : A_AC3
Duration                                 : 2 h 6 min
Bit rate mode                            : Constant
Bit rate                                 : 448 kb/s
Channel(s)                               : 6 channels
Channel positions                        : Front: L C R, Side: L R, LFE
Sampling rate                            : 48.0 kHz
Frame rate                               : 31.250 FPS (1536 spf)
Bit depth                                : 16 bits
Compression mode                         : Lossy
Stream size                              : 407 MiB (1%)
Title                                    : AC3 5.1 @ 448 kbps - DUB, Blu-ray EUR
Language                                 : Ukrainian
Service kind                             : Complete Main
Default                                  : No
Forced                                   : No

Audio #3
ID                                       : 4
Format                                   : DTS
Format/Info                              : Digital Theater Systems
Format profile                           : MA / ES Matrix / Core
Mode                                     : 16
Format settings, Endianness              : Big
Codec ID                                 : A_DTS
Duration                                 : 2 h 6 min
Bit rate mode                            : Variable / Constant / Constant
Bit rate                                 : 4 528 kb/s / 1 509 kb/s / 1 509 kb/s
Channel(s)                               : 8 channels / 7 channels / 6 channels
Channel positions                        : Front: L C R, Side: L R, Back: L R, LFE / Front: L C R, Side: L R, Back: C, LFE / Front: L C R, Side: L R, LFE
Sampling rate                            : 48.0 kHz
Frame rate                               : 93.750 FPS (512 spf)
Bit depth                                : 24 bits
Compression mode                         : Lossless / Lossy / Lossy
Stream size                              : 4.01 GiB (13%)
Title                                    : DTS-HD MA 7.1 @ 4528 kbps - Blu-ray
Language                                 : English
Default                                  : No
Forced                                   : No

Text #1
ID                                       : 5
Format                                   : UTF-8
Codec ID                                 : S_TEXT/UTF8
Codec ID/Info                            : UTF-8 Plain Text
Duration                                 : 1 h 58 min
Bit rate                                 : 79 b/s
Count of elements                        : 1407
Stream size                              : 69.5 KiB (0%)
Title                                    : Blu-ray EUR
Language                                 : Russian
Default                                  : No
Forced                                   : No

Text #2
ID                                       : 6
Format                                   : UTF-8
Codec ID                                 : S_TEXT/UTF8
Codec ID/Info                            : UTF-8 Plain Text
Duration                                 : 1 h 58 min
Bit rate                                 : 82 b/s
Count of elements                        : 1412
Stream size                              : 71.9 KiB (0%)
Title                                    : Blu-ray EUR
Language                                 : Ukrainian
Default                                  : No
Forced                                   : No

Text #3
ID                                       : 7
Format                                   : UTF-8
Codec ID                                 : S_TEXT/UTF8
Codec ID/Info                            : UTF-8 Plain Text
Duration                                 : 2 h 1 min
Bit rate                                 : 49 b/s
Count of elements                        : 1570
Stream size                              : 44.6 KiB (0%)
Language                                 : English
Default                                  : No
Forced                                   : No

Text #4
ID                                       : 8
Format                                   : UTF-8
Codec ID                                 : S_TEXT/UTF8
Codec ID/Info                            : UTF-8 Plain Text
Duration                                 : 2 h 1 min
Bit rate                                 : 54 b/s
Count of elements                        : 1805
Stream size                              : 48.8 KiB (0%)
Title                                    : SDH
Language                                 : English
Default                                  : No
Forced                                   : No


А этот не хочет (http://torrent-lynx.ru/details.php?id=62841):

Код: Выделить всё
General
Unique ID                                : 207921150194949222760413877268462015833 (0x9C6C282C1E3C2AEA81A9E157F3E99559)
Complete name                            : Z:\4K-UHD\Изгой-Один. Звёздные Войны - Истории (2016) 4K HDR 10bit.mkv
Format                                   : Matroska
Format version                           : Version 4 / Version 2
File size                                : 42.4 GiB
Duration                                 : 2 h 13 min
Overall bit rate                         : 45.3 Mb/s
Movie name                               : TEKNO3D.com - Rogue One: A Star Wars Story 4K VISIONPLUSHDR-1000 Chroma Subsampling 4:2:2 Edition
Encoded date                             : UTC 2017-04-16 08:07:24
Writing application                      : mkvmerge v10.0.0 ('To Drown In You') 64bit
Writing library                          : libebml v1.3.4 + libmatroska v1.4.5
Cover                                    : Yes
Attachments                              : cover.jpg

Video
ID                                       : 1
Format                                   : HEVC
Format/Info                              : High Efficiency Video Coding
Format profile                           : @L5@High
Codec ID                                 : V_MPEGH/ISO/HEVC
Duration                                 : 2 h 13 min
Bit rate                                 : 39.8 Mb/s
Width                                    : 3 840 pixels
Height                                   : 1 608 pixels
Display aspect ratio                     : 2.40:1
Frame rate mode                          : Constant
Frame rate                               : 23.976 (24000/1001) FPS
Color space                              : YUV
Chroma subsampling                       : 4:2:2 (Type 2)
Bit depth                                : 10 bits
Bits/(Pixel*Frame)                       : 0.269
Stream size                              : 37.2 GiB (88%)
Title                                    : TEKNO3D.com Rogue One: A Star Wars Story 4K VISIONPLUSHDR-1000 4:2:2 Edition
Writing library                          : x265 2.3+17-6e348252e902:[Windows][GCC 6.3.0][64 bit] 10bit
Encoding settings                        : cpuid=1173503 / frame-threads=3 / numa-pools=8 / wpp / no-pmode / no-pme / no-psnr / no-ssim / log-level=2 / input-csp=2 / input-res=3840x1608 / interlace=0 / total-frames=192703 / level-idc=0 / high-tier=1 / uhd-bd=0 / ref=1 / no-allow-non-conformance / repeat-headers / annexb / no-aud / no-hrd / info / hash=0 / no-temporal-layers / no-open-gop / min-keyint=23 / keyint=250 / bframes=3 / b-adapt=0 / b-pyramid / bframe-bias=0 / rc-lookahead=5 / lookahead-slices=8 / scenecut=40 / no-intra-refresh / ctu=32 / min-cu-size=16 / no-rect / no-amp / max-tu-size=32 / tu-inter-depth=1 / tu-intra-depth=1 / limit-tu=0 / rdoq-level=0 / dynamic-rd=0.00 / no-signhide / no-tskip / nr-intra=0 / nr-inter=0 / no-constrained-intra / strong-intra-smoothing / max-merge=2 / limit-refs=0 / no-limit-modes / me=3 / subme=5 / merange=57 / temporal-mvp / no-weightp / no-weightb / no-analyze-src-pics / deblock=0:0 / no-sao / no-sao-non-deblock / rd=2 / early-skip / no-rskip / fast-intra / no-tskip-fast / no-cu-lossless / no-b-intra / rdpenalty=0 / psy-rd=4.00 / psy-rdoq=0.00 / no-rd-refine / analysis-mode=0 / no-lossless / cbqpoffs=0 / crqpoffs=0 / rc=abr / bitrate=40000 / qcomp=0.60 / qpstep=1 / stats-write=0 / stats-read=0 / ipratio=1.10 / pbratio=1.00 / aq-mode=0 / aq-strength=0.00 / no-cutree / zone-count=0 / no-strict-cbr / qg-size=32 / rc-grain / qpmax=69 / qpmin=0 / sar=0 / overscan=0 / videoformat=5 / range=0 / colorprim=9 / transfer=16 / colormatrix=9 / chromaloc=1 / chromaloc-top=2 / chromaloc-bottom=2 / display-window=0 / master-display=G(8500,39850)B(6550,2300)R(35400,14600)WP(15635,16450)L(100000000,1) / max-cll=10000,180 / min-luma=0 / max-luma=1023 / log2-max-poc-lsb=8 / vui-timing-info / vui-hrd-info / slices=1 / opt-qp-pps / opt-ref-list-length-pps / no-multi-pass-opt-rps / scenecut-bias=0.05 / no-opt-cu-delta-qp / no-aq-motion / hdr / no-hdr-optrefine-level=5
Default                                  : Yes
Forced                                   : No
Color range                              : Limited
Color primaries                          : BT.2020
Transfer characteristics                 : SMPTE ST 2084
Matrix coefficients                      : BT.2020 non-constant
Mastering display color primaries        : R: x=0.708000 y=0.292000, G: x=0.170000 y=0.797000, B: x=0.131000 y=0.046000, White point: x=0.312700 y=0.329000
Mastering display luminance              : min: 0.0001 cd/m2, max: 10000.0000 cd/m2
Maximum Content Light Level              : 10000 cd/m2
Maximum Frame-Average Light Level        : 180 cd/m2

Audio #1
ID                                       : 2
Format                                   : AC-3
Format/Info                              : Audio Coding 3
Format settings, Endianness              : Big
Codec ID                                 : A_AC3
Duration                                 : 2 h 13 min
Bit rate mode                            : Constant
Bit rate                                 : 384 kb/s
Channel(s)                               : 6 channels
Channel positions                        : Front: L C R, Side: L R, LFE
Sampling rate                            : 48.0 kHz
Frame rate                               : 31.250 FPS (1536 spf)
Bit depth                                : 16 bits
Compression mode                         : Lossy
Delay relative to video                  : 16 ms
Stream size                              : 368 MiB (1%)
Title                                    : Русский AC-3 384kb/s
Language                                 : Russian
Service kind                             : Complete Main
Default                                  : No
Forced                                   : No

Audio #2
ID                                       : 3
Format                                   : DTS
Format/Info                              : Digital Theater Systems
Format profile                           : MA / Core
Mode                                     : 16
Format settings, Endianness              : Big
Codec ID                                 : A_DTS
Duration                                 : 2 h 13 min
Bit rate mode                            : Variable / Constant
Bit rate                                 : 5 136 kb/s / 1 509 kb/s
Channel(s)                               : 8 channels / 6 channels
Channel positions                        : Front: L C R, Side: L R, Back: L R, LFE / Front: L C R, Side: L R, LFE
Sampling rate                            : 48.0 kHz
Frame rate                               : 93.750 FPS (512 spf)
Bit depth                                : 24 bits
Compression mode                         : Lossless / Lossy
Delay relative to video                  : 3 ms
Stream size                              : 4.80 GiB (11%)
Title                                    : English DTS-HD Master Audio 7.1
Language                                 : English
Default                                  : Yes
Forced                                   : No
VasiliyM6

 
Сообщения: 8
Зарегистрирован: 11 ноя 2016, 09:52
Благодарил (а): 1 раз.
Поблагодарили: 0 раз.

Re: Просмотр контента в формате HDR (кино, сериалы, игры, спутниковое

Сообщение Lex Raven » 21 апр 2017, 11:22

Может просто битый файл? Комп воспроизводит ?
Semper Fi, Motherfucker !!!
Lex Raven

 
Сообщения: 44
Зарегистрирован: 17 дек 2016, 15:09
Благодарил (а): 3 раз.
Поблагодарили: 8 раз.
Телевизор: LG 65uh620v

Re: Просмотр контента в формате HDR (кино, сериалы, игры, спутниковое

Сообщение VasiliyM6 » 21 апр 2017, 11:54

Комп с трудом, но тянет. Многие жалуются, что не идет этот файл, и не только владельцы ТВ LG. Но одном из трекеров написали, что в этом релизе слишком большое значение яркости, в нем
Maximum Content Light Level : 10000 cd/m2
Воспроизведение возможно только на телеках с DOLBY VISION
VasiliyM6

 
Сообщения: 8
Зарегистрирован: 11 ноя 2016, 09:52
Благодарил (а): 1 раз.
Поблагодарили: 0 раз.

Re: Просмотр контента в формате HDR (кино, сериалы, игры, спутниковое

Сообщение Lex Raven » 22 апр 2017, 05:38

В понедельник приеду, проверю у себя. Разница разве что в потоке, на 10мб больше..
Semper Fi, Motherfucker !!!
Lex Raven

 
Сообщения: 44
Зарегистрирован: 17 дек 2016, 15:09
Благодарил (а): 3 раз.
Поблагодарили: 8 раз.
Телевизор: LG 65uh620v

Re: Просмотр контента в формате HDR (кино, сериалы, игры, спутниковое

Сообщение Bakugan » 23 апр 2017, 08:08

Сравните эти две строчки у фильмов:
Mastering display luminance : min: 0.0000 cd/m2, max: 1000.0000 cd/m2

Mastering display luminance : min: 0.0001 cd/m2, max: 10000.0000 cd/m2

Проблема в значении параметра Mastering display luminance, по стандарту HDR10 он оставляет max: 4000 cd/m2.
Bakugan

 
Сообщения: 1698
Зарегистрирован: 07 окт 2010, 17:52
Благодарил (а): 34 раз.
Поблагодарили: 172 раз.
Телефон: Palm Pre 2
Планшет: HP TouchPad Wi-Fi 16Gb

Re: Просмотр контента в формате HDR (кино, сериалы, игры, спутниковое

Сообщение sinnbad » 25 апр 2017, 18:34

у кого нибудь получилось?
https://translate.google.ru/translate?h ... ight%3DHDR

я пока не ставил обновление для win10
галка send metadata to display, появляется в madvr 0.91.9, но эффекта у меня пока нет

upd:
win10 1703 НЕ НУЖЕН
мой рецепт: ms server 2016, pot player x32(hevc cuda), madvr 0.91.9 (passthru nvidia api), gtx1060 (дрова 381.89), тв 10bit HDR (deepcolor on)
при этом при использовании LAV декодера с CUDA или DVXA в madvr по ctrl+j вижу HDR metadata unknown properties
при использовании LAV программного декодера, есть что то осмысленное в HDR metadata типа "HDR 1000nits BT.2020 -> DCI-P3"
на драйверах 382.05 hdr включается и через неск секунд вырубается. Пока откатился

и сразу вопрос:
Кто то умеет смотреть с пк ролики с dolby vision?
Последний раз редактировалось sinnbad 18 май 2017, 14:21, всего редактировалось 3 раз(а).
sinnbad

 
Сообщения: 19
Зарегистрирован: 28 мар 2017, 10:46
Благодарил (а): 1 раз.
Поблагодарили: 4 раз.
Телевизор: 65uh950v

Re: Просмотр контента в формате HDR (кино, сериалы, игры, спутниковое

Сообщение Lex Raven » 25 апр 2017, 20:36

Вобщем этот релиз Звездных Войн - фуфло. На компе с MadVR у меня запустился без проблем. Все четко и ярко.
Телевизор думал минуту - после чего сказал что "формат не поддерживается".
http://nnmclub.to/forum/viewtopic.php?t=1126158
Тут народ нормально в комментах обсудил. Есть чуваки с крутейшими новыми телеками - там тож не работает.
Да и релиза официального диска с HDR и 4К не было. Только 3Д+обычный 1080.
Semper Fi, Motherfucker !!!
Lex Raven

 
Сообщения: 44
Зарегистрирован: 17 дек 2016, 15:09
Благодарил (а): 3 раз.
Поблагодарили: 8 раз.
Телевизор: LG 65uh620v

Re: Просмотр контента в формате HDR (кино, сериалы, игры, спутниковое

Сообщение keern » 01 май 2017, 16:40

Всем привет!

Зарегился чтобы запостить ссылку на релиз Планеты земля 2 в 4к http://www.blu-ray.com/movies/Planet-Ea ... ay/168607/ - http://nnmclub.to/forum/viewtopic.php?t=1123359 . Картинка и сам фильм офигенный!
На 55UH615V по проводной сети через SmartShare показывает без тормозов, появляется значок HDR.
Сравнил c 1080p http://nnmclub.to/forum/viewtopic.php?t=1080952 - небо и земля!
keern

 
Сообщения: 1
Зарегистрирован: 01 май 2017, 16:12
Благодарил (а): 0 раз.
Поблагодарили: 0 раз.
Телевизор: 55UH615V

Re: Просмотр контента в формате HDR (кино, сериалы, игры, спутниковое

Сообщение VasiliyM6 » 01 май 2017, 17:47

Спасибо,keern, ранее находил раздачу только с 4мя сериями. А тут полный комплект! Отличный сериал!
VasiliyM6

 
Сообщения: 8
Зарегистрирован: 11 ноя 2016, 09:52
Благодарил (а): 1 раз.
Поблагодарили: 0 раз.

Пред.След.

Вернуться в webOS-телевизоры - Обсуждение



 


  • Похожие темы
    Ответы
    Просмотры
    Последнее сообщение

Кто сейчас на конференции

Сейчас этот форум просматривают: нет зарегистрированных пользователей и гости: 0