Реклама показывается только незарегистрированным пользователям. Вход или Регистрация

Просмотр 4К видео через DLNA

Помощь новичкам, часто задаваемые вопросы и ответы по телевизорам LG на webOS. Новичкам читать обязательно.

Re: Почему не показывает 4К видео через DLNA

Сообщение tutelarix » 22 дек 2014, 18:12

Добрый день.

Так как 4к видео нельзя смотреть через DLNA, значит его нужно записать на внешний жесткий диск и подкючить к телевизору по USB 3.0. Возникает вопрос упрощения заливки таких фильмов, что бы не бегать с жестким от компьютеру к телевизору, возможно ли зайти на подключенный к телевизору жесткий диск с компьютера по сети, что бы закинуть какие нибудь файлы? Пожалуйста, подскажите возможно ли такое и как это сделать.

Спасибо.
tutelarix

 
Сообщения: 3
Зарегистрирован: 22 дек 2014, 16:39
Благодарил (а): 0 раз.
Поблагодарили: 1 раз.
Телевизор: LG 55UB850V

Re: Почему не показывает 4К видео через DLNA

Спонсор » 22 дек 2014, 18:12

Реклама показывается только незарегистрированным пользователям. Войти или Зарегистрироваться
Спонсор

 
Сообщения: 100
Зарегистрирован: 15 июл 2014, 19:43
Благодарил (а): 0 раз.
Поблагодарили: 0 раз.

Re: Почему не показывает 4К видео через DLNA

Сообщение tessi » 22 дек 2014, 18:18

нет
tessi
Лучший пользователь форума 2016
 
Сообщения: 5662
Зарегистрирован: 08 авг 2014, 11:20
Благодарил (а): 110 раз.
Поблагодарили: 536 раз.
Телевизор: LG 49UB850V 24LH480U

Re: Почему не показывает 4К видео через DLNA

Сообщение kraleksandr » 23 дек 2014, 10:14

Но вы можете заливать файлы по сети сразу на диск (NAS), умеющий быть подключенным по USB.
kraleksandr

 
Сообщения: 61
Зарегистрирован: 22 ноя 2014, 21:24
Благодарил (а): 2 раз.
Поблагодарили: 7 раз.
Телевизор: LG 42LB673

Re: Почему не показывает 4К видео через DLNA

Сообщение tutelarix » 23 дек 2014, 11:36

Понял.

Спасибо.
tutelarix

 
Сообщения: 3
Зарегистрирован: 22 дек 2014, 16:39
Благодарил (а): 0 раз.
Поблагодарили: 1 раз.
Телевизор: LG 55UB850V

Re: LG 55UB950V не показывает 4K

Сообщение actor » 10 янв 2016, 19:04

Urus писал(а):tessi
Во избежание разочарований следует добавить что даже через юсб битрейт роликов должен быть не более 50 мбит сек.


А вообще есть возможность смотреть 4к больше 50 мбит сек. и если да то как?
actor

 
Сообщения: 31
Зарегистрирован: 09 янв 2016, 23:32
Благодарил (а): 1 раз.
Поблагодарили: 0 раз.
Телевизор: 65uf850v

Re: Почему не показывает 4К видео через DLNA

Сообщение tessi » 10 янв 2016, 19:21

actor
запускать 4к на компе, а смотреть на тв через кабель HDMI
tessi
Лучший пользователь форума 2016
 
Сообщения: 5662
Зарегистрирован: 08 авг 2014, 11:20
Благодарил (а): 110 раз.
Поблагодарили: 536 раз.
Телевизор: LG 49UB850V 24LH480U

Re: Почему не показывает 4К видео через DLNA

Сообщение actor » 10 янв 2016, 19:58

tessi
Установил XPlay 4к начали запускаться через DLNA, в том числе больше 50 мбит/c например http://rutracker.org/forum/viewtopic.php?t=4805728 http://rutracker.org/forum/viewtopic.php?t=4228537.

tessi огромное спасибо за помощь!
actor

 
Сообщения: 31
Зарегистрирован: 09 янв 2016, 23:32
Благодарил (а): 1 раз.
Поблагодарили: 0 раз.
Телевизор: 65uf850v

Re: Просмотр контента в формате 4K (UltraHD, UHD)

Сообщение kaktusgarden » 14 июн 2016, 13:01

Всем добрый день!
Являюсь обладателем LG 43UF771V. Появилась потребность смотреть видео в 4K по сети, через DLNA. Но увы... как оказалось, что очень сложная задача для современного телевизора.
Провел небольшое тестирование... Может кому будет интересно:
kaktusgarden @ PlayPMS - альтернативный клиент для Plex Media Server
kaktusgarden

 
Сообщения: 5
Зарегистрирован: 14 июн 2016, 12:25
Благодарил (а): 0 раз.
Поблагодарили: 1 раз.
Телевизор: 43UF771V

Re: Просмотр контента в формате 4K (кино, сериалы, игры и пр.)

Сообщение Архивариус » 08 май 2017, 23:45

Посмотрел сегодня Союзники/ Allied (2016) в 4K. Телевизор 49UB850V (2014 года) в паре с плеером XPlay нормально справился с потоком 27 Мбит/сек по домашней сети. Кстати, русские субтитры в формате SRT iTunes нормально включаются и выключаются без необходимости транскодирования, в отличие от присутствующих в этом файле ASS Forced iTune и SRT Forced iTunes.



Техническая инфа по фильму, если кому интересно:
Код: Выделить всё
General
Unique ID                      : 195995275004519812927211784881282076885 (0x93735120F219D016989737C94739D0D5)
Complete name                  : Allied.2016.2160p.UHD.BluRay.HDR.DTS-HD.MA5.1.x265-ULTRAHDCLUB.mkv
Format                         : Matroska
Format version                 : Version 4 / Version 2
File size                      : 23.6 GiB
Duration                       : 2h 4mn
Overall bit rate               : 27.1 Mbps
Encoded date                   : UTC 2017-03-30 17:57:00
Writing application            : mkvmerge v9.9.0 ('Pick Up') 64bit
Writing library                : libebml v1.3.4 + libmatroska v1.4.5

Video
ID                             : 1
Format                         : HEVC
Format/Info                    : High Efficiency Video Coding
Format profile                 : Main 10@L5@High
Codec ID                       : V_MPEGH/ISO/HEVC
Duration                       : 2h 4mn
Bit rate                       : 22.5 Mbps
Width                          : 3 840 pixels
Height                         : 1 600 pixels
Display aspect ratio           : 2.40:1
Frame rate mode                : Constant
Frame rate                     : 23.976 (24000/1001) fps
Original frame rate            : 23.976 (23976/1000) fps
Color space                    : YUV
Chroma subsampling             : 4:2:0 (Type 2)
Bit depth                      : 10 bits
Bits/(Pixel*Frame)             : 0.152
Stream size                    : 19.5 GiB (83%)
Title                          : Allied (2016) - Release for ULTRAHDCLUB
Writing library                : x265 2.3+23-97435a0870be:[Windows][GCC 6.3.0][64 bit] 10bit
Encoding settings              : cpuid=1050111 / frame-threads=3 / numa-pools=12 / wpp / no-pmode / no-pme / no-psnr / no-ssim / log-level=2 / input-csp=1 / input-res=3840x1600 / interlace=0 / total-frames=0 / level-idc=0 / high-tier=1 / uhd-bd=0 / ref=1 / no-allow-non-conformance / repeat-headers / annexb / aud / hrd / info / hash=0 / no-temporal-layers / open-gop / min-keyint=23 / keyint=250 / bframes=3 / b-adapt=2 / b-pyramid / bframe-bias=0 / rc-lookahead=40 / lookahead-slices=0 / scenecut=40 / no-intra-refresh / ctu=32 / min-cu-size=8 / no-rect / no-amp / max-tu-size=32 / tu-inter-depth=1 / tu-intra-depth=1 / limit-tu=0 / rdoq-level=2 / dynamic-rd=0.00 / signhide / no-tskip / nr-intra=0 / nr-inter=0 / no-constrained-intra / strong-intra-smoothing / max-merge=2 / limit-refs=0 / no-limit-modes / me=2 / subme=7 / merange=57 / temporal-mvp / weightp / weightb / no-analyze-src-pics / no-deblock / no-sao / no-sao-non-deblock / rd=6 / no-early-skip / no-rskip / fast-intra / no-tskip-fast / no-cu-lossless / no-b-intra / rdpenalty=0 / psy-rd=4.00 / psy-rdoq=8.00 / no-rd-refine / analysis-mode=0 / no-lossless / cbqpoffs=0 / crqpoffs=0 / rc=crf / crf=21.0 / qcomp=0.80 / qpstep=1 / stats-write=0 / stats-read=0 / vbv-maxrate=100000 / vbv-bufsize=100000 / vbv-init=0.9 / crf-max=0.0 / crf-min=0.0 / ipratio=1.10 / pbratio=1.00 / aq-mode=3 / aq-strength=1.00 / no-cutree / zone-count=0 / no-strict-cbr / qg-size=32 / no-rc-grain / qpmax=51 / qpmin=0 / sar=0 / overscan=0 / videoformat=5 / range=0 / colorprim=9 / transfer=16 / colormatrix=9 / chromaloc=1 / chromaloc-top=2 / chromaloc-bottom=2 / display-window=0 / master-display=G(13250,34500)B(7500,3000)R(34000,16000)WP(15635,16450)L(10000000,0) / max-cll=0,0 / min-luma=0 / max-luma=1023 / log2-max-poc-lsb=8 / vui-timing-info / vui-hrd-info / slices=1 / opt-qp-pps / opt-ref-list-length-pps / no-multi-pass-opt-rps / scenecut-bias=0.05 / no-opt-cu-delta-qp / no-aq-motion / hdr / no-hdr-opt / refine-level=5
Default                        : Yes
Forced                         : No
Color range                    : Limited
Color primaries                : BT.2020
Transfer characteristics       : SMPTE ST 2084
Matrix coefficients            : BT.2020 non-constant
Mastering display color primar : R: x=0.680000 y=0.320000, G: x=0.265000 y=0.690000, B: x=0.150000 y=0.060000, White point: x=0.312700 y=0.329000
Mastering display luminance    : min: 0.0000 cd/m2, max: 1000.0000 cd/m2

Audio #1
ID                             : 2
Format                         : AC-3
Format/Info                    : Audio Coding 3
Mode extension                 : CM (complete main)
Format settings, Endianness    : Big
Codec ID                       : A_AC3
Duration                       : 2h 4mn
Bit rate mode                  : Constant
Bit rate                       : 640 Kbps
Channel(s)                     : 6 channels
Channel positions              : Front: L C R, Side: L R, LFE
Sampling rate                  : 48.0 KHz
Frame rate                     : 31.250 fps (1536 spf)
Compression mode               : Lossy
Stream size                    : 570 MiB (2%)
Title                          : AC3 5.1 @ 640 kbps - DUB, Blu-ray CEE
Language                       : Russian
Default                        : Yes
Forced                         : No

Audio #2
ID                             : 3
Format                         : AC-3
Format/Info                    : Audio Coding 3
Mode extension                 : CM (complete main)
Format settings, Endianness    : Big
Codec ID                       : A_AC3
Duration                       : 2h 4mn
Bit rate mode                  : Constant
Bit rate                       : 640 Kbps
Channel(s)                     : 6 channels
Channel positions              : Front: L C R, Side: L R, LFE
Sampling rate                  : 48.0 KHz
Frame rate                     : 31.250 fps (1536 spf)
Compression mode               : Lossy
Stream size                    : 570 MiB (2%)
Title                          : AC3 5.1 @ 640 kbps - DUB, Blu-ray CEE
Language                       : Ukrainian
Default                        : No
Forced                         : No

Audio #3
ID                             : 4
Format                         : DTS
Format/Info                    : Digital Theater Systems
Format profile                 : MA / Core
Mode                           : 16
Format settings, Endianness    : Big
Codec ID                       : A_DTS
Duration                       : 2h 4mn
Bit rate mode                  : Variable / Constant
Bit rate                       : 3 333 Kbps / 1 509 Kbps
Channel(s)                     : 6 channels
Channel positions              : Front: L C R, Side: L R, LFE
Sampling rate                  : 48.0 KHz
Frame rate                     : 93.750 fps (512 spf)
Bit depth                      : 24 bits
Compression mode               : Lossless / Lossy
Stream size                    : 2.90 GiB (12%)
Title                          : DTS-HD MA 5.1 @ 3333 kbps - Blu-ray CEE
Language                       : English
Default                        : No
Forced                         : No

Text #1
ID                             : 5
Format                         : ASS
Codec ID                       : S_TEXT/ASS
Codec ID/Info                  : Advanced Sub Station Alpha
Duration                       : 1h 38mn
Bit rate                       : 16 bps
Count of elements              : 141
Compression mode               : Lossless
Stream size                    : 11.6 KiB (0%)
Title                          : Forced, iTunes (ASS)
Language                       : Russian
Default                        : Yes
Forced                         : No

Text #2
ID                             : 6
Format                         : UTF-8
Codec ID                       : S_TEXT/UTF8
Codec ID/Info                  : UTF-8 Plain Text
Duration                       : 1h 38mn
Bit rate                       : 9 bps
Count of elements              : 141
Stream size                    : 6.46 KiB (0%)
Title                          : Forced, iTunes
Language                       : Russian
Default                        : No
Forced                         : No

Text #3
ID                             : 7
Format                         : ASS
Codec ID                       : S_TEXT/ASS
Codec ID/Info                  : Advanced Sub Station Alpha
Duration                       : 1h 55mn
Bit rate                       : 92 bps
Count of elements              : 970
Compression mode               : Lossless
Stream size                    : 78.4 KiB (0%)
Title                          : iTunes (ASS)
Language                       : Russian
Default                        : No
Forced                         : No

Text #4
ID                             : 8
Format                         : UTF-8
Codec ID                       : S_TEXT/UTF8
Codec ID/Info                  : UTF-8 Plain Text
Duration                       : 1h 55mn
Bit rate                       : 57 bps
Count of elements              : 970
Stream size                    : 48.1 KiB (0%)
Title                          : iTunes
Language                       : Russian
Default                        : No
Forced                         : No

Text #5
ID                             : 9
Format                         : ASS
Codec ID                       : S_TEXT/ASS
Codec ID/Info                  : Advanced Sub Station Alpha
Duration                       : 1h 38mn
Bit rate                       : 16 bps
Count of elements              : 149
Compression mode               : Lossless
Stream size                    : 11.9 KiB (0%)
Title                          : Forced, Blu-ray CEE (ASS)
Language                       : Ukrainian
Default                        : No
Forced                         : No

Text #6
ID                             : 10
Format                         : UTF-8
Codec ID                       : S_TEXT/UTF8
Codec ID/Info                  : UTF-8 Plain Text
Duration                       : 1h 38mn
Bit rate                       : 8 bps
Count of elements              : 149
Stream size                    : 6.44 KiB (0%)
Title                          : Forced, Blu-ray CEE
Language                       : Ukrainian
Default                        : No
Forced                         : No

Text #7
ID                             : 11
Format                         : ASS
Codec ID                       : S_TEXT/ASS
Codec ID/Info                  : Advanced Sub Station Alpha
Duration                       : 2h 3mn
Bit rate                       : 87 bps
Count of elements              : 1054
Compression mode               : Lossless
Stream size                    : 79.1 KiB (0%)
Title                          : Blu-ray CEE (ASS)
Language                       : Ukrainian
Default                        : No
Forced                         : No

Text #8
ID                             : 12
Format                         : UTF-8
Codec ID                       : S_TEXT/UTF8
Codec ID/Info                  : UTF-8 Plain Text
Duration                       : 2h 3mn
Bit rate                       : 51 bps
Count of elements              : 1054
Stream size                    : 46.1 KiB (0%)
Title                          : Blu-ray CEE
Language                       : Ukrainian
Default                        : No
Forced                         : No

Text #9
ID                             : 13
Format                         : UTF-8
Codec ID                       : S_TEXT/UTF8
Codec ID/Info                  : UTF-8 Plain Text
Duration                       : 1h 47mn
Bit rate                       : 33 bps
Count of elements              : 902
Stream size                    : 26.3 KiB (0%)
Language                       : English
Default                        : No
Forced                         : No

Menu
00:00:00.000                   : en:00:00:00.000
00:05:38.088                   : en:00:05:38.088
00:16:39.749                   : en:00:16:39.749
00:24:31.428                   : en:00:24:31.428
00:33:52.280                   : en:00:33:52.280
00:43:07.543                   : en:00:43:07.543
00:49:14.118                   : en:00:49:14.118
01:01:39.321                   : en:01:01:39.321
01:09:36.339                   : en:01:09:36.339
01:16:44.016                   : en:01:16:44.016
01:26:14.961                   : en:01:26:14.961
01:31:53.466                   : en:01:31:53.466
01:40:12.173                   : en:01:40:12.173
01:47:25.105                   : en:01:47:25.105
01:56:35.614                   : en:01:56:35.614

Архивариус

 
Сообщения: 4437
Зарегистрирован: 29 июл 2010, 21:22
Благодарил (а): 411 раз.
Поблагодарили: 541 раз.
Телевизор: LG 55UB950 24MT57S

Re: Просмотр 4К видео через DLNA

Сообщение vrekota » 09 май 2017, 21:49

заметил, что файлы mkv до 30 Гб встроенный плеер воспроизводит без проблем, а вот если больше, то начинаются тормоза. Изгой-Один. Звёздные Войны - Истории (2016) 4K HDR 10bit.mkv размер чуть больше 42 Гб вообще не стал воспроизводиться, а The.Last.Witch.Hunter.2015.2160p.UHD.BluRay.HDR.DTS-HD.MA7.1.x265-ULTRAHDCLUB.mkv размером 39,3 Гб запустился, но с дикими тормозами.
vrekota

 
Сообщения: 3
Зарегистрирован: 17 янв 2017, 09:57
Благодарил (а): 1 раз.
Поблагодарили: 0 раз.
Телевизор: LG 55UH770V

Пред.След.

Вернуться в webOS-телевизоры - Помощь



 


  • Похожие темы
    Ответы
    Просмотры
    Последнее сообщение

Кто сейчас на конференции

Сейчас этот форум просматривают: temaach и гости: 0