Реклама показывается только незарегистрированным пользователям. Вход или Регистрация

Просмотр 4K видео через DLNA (часть 1)

Обсуждение LG smart TV. Пишем тут отзывы и мнения об лджи смарт тв! Разрешено обсуждать цены и где дешевле купить смарт тв.

Re: Просмотр 4K видео через DLNA

Сообщение tessi » 11 янв 2018, 18:17

fedozzi
в телике LG 55SJ850V вай-фай AC

Добавлено спустя 2 минуты 21 секунду:

melandr_a писал(а):Добрый день. Решил тоже посоветоваться. Купил телевизор, при просмотре фильмов 4к с компьютера через RemoteFork и DLNA Plugins на телевизоре появляются периодические фризы на 1-2 секунды. Роутер стоял ASUS RT-N14U. Попросил у друга потестировать ASUS RT-AC66U B1. Но фризы так и остались. Хотя компьютер подключен по 1ГБит/с, а телевизор по 5 ГГц.

Проверьте скорость подключения тв к роутеру по вайфай в меню Host Diagnostics: tessi @ Сервисное (инженерное) меню на телевизорах LG
tessi
Лучший пользователь форума 2016
 
Сообщения: 8073
Зарегистрирован: 08 авг 2014, 10:20
Благодарил (а): 301 раз.
Поблагодарили: 885 раз.
Телевизор: LG 49UB850V 24LH480U

Re: Просмотр 4K видео через DLNA

Спонсор » 11 янв 2018, 18:19

Реклама показывается только незарегистрированным пользователям. Войти или Зарегистрироваться
Спонсор

 
Сообщения: 100
Зарегистрирован: 15 июл 2014, 18:43
Благодарил (а): 0 раз.
Поблагодарили: 0 раз.

Re: Просмотр 4K видео через DLNA

Сообщение melandr_a » 11 янв 2018, 20:02

Код: Выделить всё
Complete name               : F:\Фильмы\Джейсон Борн.2016.UHD.BluRay.Remux.2160p.mkv
Format                      : Matroska
Format version              : Version 4 / Version 2
File size                   : 75.8 GiB
Duration                    : 2 h 3 min
Overall bit rate            : 88.1 Mb/s
Encoded date                : UTC 2017-12-03 12:25:30
Writing application         : mkvmerge v18.0.0 ('Apricity') 64-bit
Writing library             : libebml v1.3.5 + libmatroska v1.4.8
Attachments                 : poster.jpg

Video
ID                          : 1
Format                      : HEVC
Format/Info                 : High Efficiency Video Coding
Format profile              : Main 10@L5.1@High
Codec ID                    : V_MPEGH/ISO/HEVC
Duration                    : 2 h 3 min
Bit rate                    : 56.5 Mb/s
Width                       : 3 840 pixels
Height                      : 2 160 pixels
Display aspect ratio        : 16:9
Frame rate mode             : Constant
Frame rate                  : 23.976 (24000/1001) FPS
Color space                 : YUV
Chroma subsampling          : 4:2:0 (Type 2)
Bit depth                   : 10 bits
Bits/(Pixel*Frame)          : 0.284
Stream size                 : 48.6 GiB (64%)
Writing library             : ATEME Titan KFE 3.7.3 (4.7.3.1003)
Default                     : Yes
Forced                      : No
Color range                 : Limited
Color primaries             : BT.2020
Transfer characteristics    : SMPTE ST 2084
Matrix coefficients         : BT.2020 non-constant
Mastering display color pri : R: x=0.680000 y=0.320000, G: x=0.265000 y=0.690000, B: x=0.150000 y=0.060000, White point: x=0.312700 y=0.329000
Mastering display luminance : min: 0.0050 cd/m2, max: 1000.0000 cd/m2
Maximum Content Light Level : 960 cd/m2
Maximum Frame-Average Light : 105 cd/m2

Audio #1
ID                          : 2
Format                      : DTS
Format/Info                 : Digital Theater Systems
Mode                        : 16
Format settings, Endianness : Big
Codec ID                    : A_DTS
Duration                    : 2 h 3 min
Bit rate mode               : Constant
Bit rate                    : 768 kb/s
Channel(s)                  : 6 channels
Channel positions           : Front: L C R, Side: L R, LFE
Sampling rate               : 48.0 kHz
Frame rate                  : 93.750 FPS (512 spf)
Bit depth                   : 24 bits
Compression mode            : Lossy
Stream size                 : 677 MiB (1%)
Title                       : Dub, Blu-Ray
Language                    : Russian
Default                     : Yes
Forced                      : No

Audio #2
ID                          : 3
Format                      : AC-3
Format/Info                 : Audio Coding 3
Format settings, Endianness : Big
Codec ID                    : A_AC3
Duration                    : 2 h 3 min
Bit rate mode               : Constant
Bit rate                    : 448 kb/s
Channel(s)                  : 6 channels
Channel positions           : Front: L C R, Side: L R, LFE
Sampling rate               : 48.0 kHz
Frame rate                  : 31.250 FPS (1536 spf)
Bit depth                   : 16 bits
Compression mode            : Lossy
Stream size                 : 395 MiB (1%)
Title                       : А. Гаврилов
Language                    : Russian
Service kind                : Complete Main
Default                     : No
Forced                      : No

Audio #3
ID                          : 4
Format                      : DTS
Format/Info                 : Digital Theater Systems
Format profile              : MA / Core
Mode                        : 16
Format settings, Endianness : Big
Codec ID                    : A_DTS
Duration                    : 2 h 3 min
Bit rate mode               : Variable / Constant
Bit rate                    : 5 720 kb/s / 1 509 kb/s
Channel(s)                  : 8 channels / 6 channels
Channel positions           : Front: L C R, Side: L R, Back: L R, LFE / Front: L C R, Side: L R, LFE
Sampling rate               : 48.0 kHz
Frame rate                  : 93.750 FPS (512 spf)
Bit depth                   : 24 bits
Compression mode            : Lossless / Lossy
Stream size                 : 4.92 GiB (6%)
Title                       : Ю. Живов
Language                    : Russian
Default                     : No
Forced                      : No

Audio #4
ID                          : 5
Format                      : DTS
Format/Info                 : Digital Theater Systems
Format profile              : MA / Core
Mode                        : 16
Format settings, Endianness : Big
Codec ID                    : A_DTS
Duration                    : 2 h 3 min
Bit rate mode               : Variable / Constant
Bit rate                    : 5 707 kb/s / 1 509 kb/s
Channel(s)                  : 8 channels / 6 channels
Channel positions           : Front: L C R, Side: L R, Back: L R, LFE / Front: L C R, Side: L R, LFE
Sampling rate               : 48.0 kHz
Frame rate                  : 93.750 FPS (512 spf)
Bit depth                   : 24 bits
Compression mode            : Lossless / Lossy
Stream size                 : 4.91 GiB (6%)
Title                       : Д. Есарев
Language                    : Russian
Default                     : No
Forced                      : No

Audio #5
ID                          : 6
Format                      : DTS
Format/Info                 : Digital Theater Systems
Format profile              : MA / Core
Mode                        : 16
Format settings, Endianness : Big
Codec ID                    : A_DTS
Duration                    : 2 h 3 min
Bit rate mode               : Variable / Constant
Bit rate                    : 5 651 kb/s / 1 509 kb/s
Channel(s)                  : 8 channels / 6 channels
Channel positions           : Front: L C R, Side: L R, Back: L R, LFE / Front: L C R, Side: L R, LFE
Sampling rate               : 48.0 kHz
Frame rate                  : 93.750 FPS (512 spf)
Bit depth                   : 24 bits
Compression mode            : Lossless / Lossy
Stream size                 : 4.86 GiB (6%)
Title                       : В. Назаров
Language                    : Russian
Default                     : No
Forced                      : No

Audio #6
ID                          : 7
Format                      : DTS
Format/Info                 : Digital Theater Systems
Format profile              : MA / Core
Mode                        : 16
Format settings, Endianness : Big
Codec ID                    : A_DTS
Duration                    : 2 h 3 min
Bit rate mode               : Variable / Constant
Bit rate                    : 5 710 kb/s / 1 509 kb/s
Channel(s)                  : 8 channels / 6 channels
Channel positions           : Front: L C R, Side: L R, Back: L R, LFE / Front: L C R, Side: L R, LFE
Sampling rate               : 48.0 kHz
Frame rate                  : 93.750 FPS (512 spf)
Bit depth                   : 24 bits
Compression mode            : Lossless / Lossy
Stream size                 : 4.91 GiB (6%)
Title                       : Е. Солодухин
Language                    : Russian
Default                     : No
Forced                      : No

Audio #7
ID                          : 8
Format                      : DTS
Format/Info                 : Digital Theater Systems
Format profile              : X / MA / Core
Mode                        : 16
Format settings, Endianness : Big
Codec ID                    : A_DTS
Duration                    : 2 h 3 min
Bit rate mode               : Variable / Variable / Constant
Bit rate                    : 7 515 kb/s / 7 515 kb/s / 1 509 kb/s
Channel(s)                  : Object Based / 8 channels / 6 channels
Channel positions           : Object Based / Front: L C R, Side: L R, Back: L R, LFE / Front: L C R, Side: L R, LFE
Sampling rate               :  / 48.0 kHz / 48.0 kHz
Frame rate                  : 93.750 FPS (512 spf)
Bit depth                   :  / 24 bits / 24 bits
Compression mode            :  / Lossless / Lossy
Stream size                 : 6.47 GiB (9%)
Language                    : English
Default                     : No
Forced                      : No

Text #1
ID                          : 9
Format                      : UTF-8
Codec ID                    : S_TEXT/UTF8
Codec ID/Info               : UTF-8 Plain Text
Duration                    : 1 h 51 min
Bit rate                    : 2 b/s
Count of elements           : 45
Stream size                 : 1.99 KiB (0%)
Title                       : forced
Language                    : Russian
Default                     : Yes
Forced                      : No

Text #2
ID                          : 10
Format                      : UTF-8
Codec ID                    : S_TEXT/UTF8
Codec ID/Info               : UTF-8 Plain Text
Duration                    : 1 h 53 min
Bit rate                    : 65 b/s
Count of elements           : 940
Stream size                 : 54.6 KiB (0%)
Title                       : full
Language                    : Russian
Default                     : No
Forced                      : No

Text #3
ID                          : 11
Format                      : UTF-8
Codec ID                    : S_TEXT/UTF8
Codec ID/Info               : UTF-8 Plain Text
Duration                    : 1 h 53 min
Bit rate                    : 37 b/s
Count of elements           : 1038
Stream size                 : 30.9 KiB (0%)
Title                       : full
Language                    : English
Default                     : No
Forced                      : No

Text #4
ID                          : 12
Format                      : UTF-8
Codec ID                    : S_TEXT/UTF8
Codec ID/Info               : UTF-8 Plain Text
Duration                    : 1 h 53 min
Bit rate                    : 43 b/s
Count of elements           : 1244
Stream size                 : 35.7 KiB (0%)
Title                       : SDH
Language                    : English
Default                     : No
Forced                      : No

Text #5
ID                          : 13
Format                      : UTF-8
Codec ID                    : S_TEXT/UTF8
Codec ID/Info               : UTF-8 Plain Text
Duration                    : 1 h 53 min
Bit rate                    : 55 b/s
Count of elements           : 1244
Stream size                 : 45.7 KiB (0%)
Title                       : SDH-Colored
Language                    : English
Default                     : No
Forced                      : No

Menu
00:00:00.000                : en:00:00:00.000
00:04:04.661                : en:00:04:04.661
00:08:21.543                : en:00:08:21.543
00:13:32.687                : en:00:13:32.687
00:18:28.316                : en:00:18:28.316
00:24:07.237                : en:00:24:07.237
00:29:21.259                : en:00:29:21.259
00:36:15.548                : en:00:36:15.548
00:42:20.663                : en:00:42:20.663
00:48:22.441                : en:00:48:22.441
00:55:12.184                : en:00:55:12.184
01:01:09.666                : en:01:01:09.666
01:08:32.483                : en:01:08:32.483
01:16:23.329                : en:01:16:23.329
01:24:45.330                : en:01:24:45.330
01:29:06.550                : en:01:29:06.550
01:37:52.909                : en:01:37:52.909
01:44:26.343                : en:01:44:26.343
01:48:03.727                : en:01:48:03.727
01:54:01.209                : en:01:54:01.209



Этот вообще сильно подвисал. Скорость сейчас проверю

За это сообщение автора melandr_a поблагодарил:
fedozzi (11 янв 2018, 20:08)
melandr_a

 
Сообщения: 37
Зарегистрирован: 11 янв 2018, 17:52
Благодарил (а): 2 раз.
Поблагодарили: 1 раз.
Телевизор: LG 55SJ850V

Re: Просмотр 4K видео через DLNA

Сообщение fedozzi » 11 янв 2018, 20:12

melandr_a писал(а):
Код: Выделить всё
Complete name               : F:\Фильмы\Джейсон Борн.2016.UHD.BluRay.Remux.2160p.mkv
Format                      : Matroska
Format version              : Version 4 / Version 2
File size                   : 75.8 GiB
Duration                    : 2 h 3 min
Overall bit rate            : 88.1 Mb/s
Encoded date                : UTC 2017-12-03 12:25:30
Writing application         : mkvmerge v18.0.0 ('Apricity') 64-bit
Writing library             : libebml v1.3.5 + libmatroska v1.4.8
Attachments                 : poster.jpg

Video
ID                          : 1
Format                      : HEVC
Format/Info                 : High Efficiency Video Coding
Format profile              : Main 10@L5.1@High
Codec ID                    : V_MPEGH/ISO/HEVC
Duration                    : 2 h 3 min
Bit rate                    : 56.5 Mb/s
Width                       : 3 840 pixels
Height                      : 2 160 pixels
Display aspect ratio        : 16:9
Frame rate mode             : Constant
Frame rate                  : 23.976 (24000/1001) FPS
Color space                 : YUV
Chroma subsampling          : 4:2:0 (Type 2)
Bit depth                   : 10 bits
Bits/(Pixel*Frame)          : 0.284
Stream size                 : 48.6 GiB (64%)
Writing library             : ATEME Titan KFE 3.7.3 (4.7.3.1003)
Default                     : Yes
Forced                      : No
Color range                 : Limited
Color primaries             : BT.2020
Transfer characteristics    : SMPTE ST 2084
Matrix coefficients         : BT.2020 non-constant
Mastering display color pri : R: x=0.680000 y=0.320000, G: x=0.265000 y=0.690000, B: x=0.150000 y=0.060000, White point: x=0.312700 y=0.329000
Mastering display luminance : min: 0.0050 cd/m2, max: 1000.0000 cd/m2
Maximum Content Light Level : 960 cd/m2
Maximum Frame-Average Light : 105 cd/m2

Audio #1
ID                          : 2
Format                      : DTS
Format/Info                 : Digital Theater Systems
Mode                        : 16
Format settings, Endianness : Big
Codec ID                    : A_DTS
Duration                    : 2 h 3 min
Bit rate mode               : Constant
Bit rate                    : 768 kb/s
Channel(s)                  : 6 channels
Channel positions           : Front: L C R, Side: L R, LFE
Sampling rate               : 48.0 kHz
Frame rate                  : 93.750 FPS (512 spf)
Bit depth                   : 24 bits
Compression mode            : Lossy
Stream size                 : 677 MiB (1%)
Title                       : Dub, Blu-Ray
Language                    : Russian
Default                     : Yes
Forced                      : No

Audio #2
ID                          : 3
Format                      : AC-3
Format/Info                 : Audio Coding 3
Format settings, Endianness : Big
Codec ID                    : A_AC3
Duration                    : 2 h 3 min
Bit rate mode               : Constant
Bit rate                    : 448 kb/s
Channel(s)                  : 6 channels
Channel positions           : Front: L C R, Side: L R, LFE
Sampling rate               : 48.0 kHz
Frame rate                  : 31.250 FPS (1536 spf)
Bit depth                   : 16 bits
Compression mode            : Lossy
Stream size                 : 395 MiB (1%)
Title                       : А. Гаврилов
Language                    : Russian
Service kind                : Complete Main
Default                     : No
Forced                      : No

Audio #3
ID                          : 4
Format                      : DTS
Format/Info                 : Digital Theater Systems
Format profile              : MA / Core
Mode                        : 16
Format settings, Endianness : Big
Codec ID                    : A_DTS
Duration                    : 2 h 3 min
Bit rate mode               : Variable / Constant
Bit rate                    : 5 720 kb/s / 1 509 kb/s
Channel(s)                  : 8 channels / 6 channels
Channel positions           : Front: L C R, Side: L R, Back: L R, LFE / Front: L C R, Side: L R, LFE
Sampling rate               : 48.0 kHz
Frame rate                  : 93.750 FPS (512 spf)
Bit depth                   : 24 bits
Compression mode            : Lossless / Lossy
Stream size                 : 4.92 GiB (6%)
Title                       : Ю. Живов
Language                    : Russian
Default                     : No
Forced                      : No

Audio #4
ID                          : 5
Format                      : DTS
Format/Info                 : Digital Theater Systems
Format profile              : MA / Core
Mode                        : 16
Format settings, Endianness : Big
Codec ID                    : A_DTS
Duration                    : 2 h 3 min
Bit rate mode               : Variable / Constant
Bit rate                    : 5 707 kb/s / 1 509 kb/s
Channel(s)                  : 8 channels / 6 channels
Channel positions           : Front: L C R, Side: L R, Back: L R, LFE / Front: L C R, Side: L R, LFE
Sampling rate               : 48.0 kHz
Frame rate                  : 93.750 FPS (512 spf)
Bit depth                   : 24 bits
Compression mode            : Lossless / Lossy
Stream size                 : 4.91 GiB (6%)
Title                       : Д. Есарев
Language                    : Russian
Default                     : No
Forced                      : No

Audio #5
ID                          : 6
Format                      : DTS
Format/Info                 : Digital Theater Systems
Format profile              : MA / Core
Mode                        : 16
Format settings, Endianness : Big
Codec ID                    : A_DTS
Duration                    : 2 h 3 min
Bit rate mode               : Variable / Constant
Bit rate                    : 5 651 kb/s / 1 509 kb/s
Channel(s)                  : 8 channels / 6 channels
Channel positions           : Front: L C R, Side: L R, Back: L R, LFE / Front: L C R, Side: L R, LFE
Sampling rate               : 48.0 kHz
Frame rate                  : 93.750 FPS (512 spf)
Bit depth                   : 24 bits
Compression mode            : Lossless / Lossy
Stream size                 : 4.86 GiB (6%)
Title                       : В. Назаров
Language                    : Russian
Default                     : No
Forced                      : No

Audio #6
ID                          : 7
Format                      : DTS
Format/Info                 : Digital Theater Systems
Format profile              : MA / Core
Mode                        : 16
Format settings, Endianness : Big
Codec ID                    : A_DTS
Duration                    : 2 h 3 min
Bit rate mode               : Variable / Constant
Bit rate                    : 5 710 kb/s / 1 509 kb/s
Channel(s)                  : 8 channels / 6 channels
Channel positions           : Front: L C R, Side: L R, Back: L R, LFE / Front: L C R, Side: L R, LFE
Sampling rate               : 48.0 kHz
Frame rate                  : 93.750 FPS (512 spf)
Bit depth                   : 24 bits
Compression mode            : Lossless / Lossy
Stream size                 : 4.91 GiB (6%)
Title                       : Е. Солодухин
Language                    : Russian
Default                     : No
Forced                      : No

Audio #7
ID                          : 8
Format                      : DTS
Format/Info                 : Digital Theater Systems
Format profile              : X / MA / Core
Mode                        : 16
Format settings, Endianness : Big
Codec ID                    : A_DTS
Duration                    : 2 h 3 min
Bit rate mode               : Variable / Variable / Constant
Bit rate                    : 7 515 kb/s / 7 515 kb/s / 1 509 kb/s
Channel(s)                  : Object Based / 8 channels / 6 channels
Channel positions           : Object Based / Front: L C R, Side: L R, Back: L R, LFE / Front: L C R, Side: L R, LFE
Sampling rate               :  / 48.0 kHz / 48.0 kHz
Frame rate                  : 93.750 FPS (512 spf)
Bit depth                   :  / 24 bits / 24 bits
Compression mode            :  / Lossless / Lossy
Stream size                 : 6.47 GiB (9%)
Language                    : English
Default                     : No
Forced                      : No

Text #1
ID                          : 9
Format                      : UTF-8
Codec ID                    : S_TEXT/UTF8
Codec ID/Info               : UTF-8 Plain Text
Duration                    : 1 h 51 min
Bit rate                    : 2 b/s
Count of elements           : 45
Stream size                 : 1.99 KiB (0%)
Title                       : forced
Language                    : Russian
Default                     : Yes
Forced                      : No

Text #2
ID                          : 10
Format                      : UTF-8
Codec ID                    : S_TEXT/UTF8
Codec ID/Info               : UTF-8 Plain Text
Duration                    : 1 h 53 min
Bit rate                    : 65 b/s
Count of elements           : 940
Stream size                 : 54.6 KiB (0%)
Title                       : full
Language                    : Russian
Default                     : No
Forced                      : No

Text #3
ID                          : 11
Format                      : UTF-8
Codec ID                    : S_TEXT/UTF8
Codec ID/Info               : UTF-8 Plain Text
Duration                    : 1 h 53 min
Bit rate                    : 37 b/s
Count of elements           : 1038
Stream size                 : 30.9 KiB (0%)
Title                       : full
Language                    : English
Default                     : No
Forced                      : No

Text #4
ID                          : 12
Format                      : UTF-8
Codec ID                    : S_TEXT/UTF8
Codec ID/Info               : UTF-8 Plain Text
Duration                    : 1 h 53 min
Bit rate                    : 43 b/s
Count of elements           : 1244
Stream size                 : 35.7 KiB (0%)
Title                       : SDH
Language                    : English
Default                     : No
Forced                      : No

Text #5
ID                          : 13
Format                      : UTF-8
Codec ID                    : S_TEXT/UTF8
Codec ID/Info               : UTF-8 Plain Text
Duration                    : 1 h 53 min
Bit rate                    : 55 b/s
Count of elements           : 1244
Stream size                 : 45.7 KiB (0%)
Title                       : SDH-Colored
Language                    : English
Default                     : No
Forced                      : No

Menu
00:00:00.000                : en:00:00:00.000
00:04:04.661                : en:00:04:04.661
00:08:21.543                : en:00:08:21.543
00:13:32.687                : en:00:13:32.687
00:18:28.316                : en:00:18:28.316
00:24:07.237                : en:00:24:07.237
00:29:21.259                : en:00:29:21.259
00:36:15.548                : en:00:36:15.548
00:42:20.663                : en:00:42:20.663
00:48:22.441                : en:00:48:22.441
00:55:12.184                : en:00:55:12.184
01:01:09.666                : en:01:01:09.666
01:08:32.483                : en:01:08:32.483
01:16:23.329                : en:01:16:23.329
01:24:45.330                : en:01:24:45.330
01:29:06.550                : en:01:29:06.550
01:37:52.909                : en:01:37:52.909
01:44:26.343                : en:01:44:26.343
01:48:03.727                : en:01:48:03.727
01:54:01.209                : en:01:54:01.209



Этот вообще сильно подвисал. Скорость сейчас проверю

Битрейт конечно солидный но на вай-фай AC не должно тормозить, либо у лыжи узкое горлышко не в сетевухе.

Ещё если у вас скорость интернета больше 90 мбит, то протестируйте ещё в приложении "скорость интернета" из lg content store
fedozzi

 
Сообщения: 127
Зарегистрирован: 10 янв 2018, 01:27
Благодарил (а): 54 раз.
Поблагодарили: 11 раз.
Телевизор: LG OLED65C9PLA

Re: Просмотр 4K видео через DLNA

Сообщение melandr_a » 11 янв 2018, 20:18

запускаю через remotfork и на телевизоре dlna plugins, фризов меньше, но все равно есть. Сейчас разберусь как скорость замерить и отпишусь

Добавлено спустя 2 минуты 39 секунд:

скорость интернета от провайдера 80 Mbps/80 Mbps. Не вижу связи со скоростью, потому что запуская вот этот фильм тоже наблюдаю фризы
Код: Выделить всё
Complete name               : F:ФильмыCriminal.2016.x264.BDRip.(1080p).OlLanDGroup.mkv
Format                      : Matroska
Format version              : Version 2
File size                   : 9.72 GiB
Duration                    : 1 h 53 min
Overall bit rate            : 12.3 Mb/s
Movie name                  : Преступник.2016.Rip by: ollan
Encoded date                : UTC 2017-03-15 15:51:18
Writing application         : mkvmerge v5.6.0 ('Kenya Kane') built on May 27 2012 16:44:04
Writing library             : libebml v1.2.3 + libmatroska v1.3.0
Cover                       : Yes
Attachments                 : Cover - Criminal.png

Video
ID                          : 1
Format                      : AVC
Format/Info                 : Advanced Video Codec
Format profile              : High@L4.1
Format settings, CABAC      : Yes
Format settings, ReFrames   : 5 frames
Codec ID                    : V_MPEG4/ISO/AVC
Duration                    : 1 h 53 min
Bit rate                    : 8 600 kb/s
Width                       : 1 920 pixels
Height                      : 804 pixels
Display aspect ratio        : 2.40:1
Frame rate mode             : Constant
Frame rate                  : 23.976 (24000/1001) FPS
Color space                 : YUV
Chroma subsampling          : 4:2:0
Bit depth                   : 8 bits
Scan type                   : Progressive
Bits/(Pixel*Frame)          : 0.232
Stream size                 : 6.63 GiB (68%)
Writing library             : x264 core 146 r2538 121396c
Encoding settings           : cabac=1 / ref=5 / deblock=1:-3:-3 / analyse=0x3:0x133 / me=umh / subme=11 / psy=1 / psy_rd=1.00:0.07 / mixed_ref=1 / me_range=48 / chroma_me=1 / trellis=2 / 8x8dct=1 / cqm=0 / deadzone=21,11 / fast_pskip=0 / chroma_qp_offset=-3 / threads=12 / lookahead_threads=3 / sliced_threads=0 / nr=0 / decimate=0 / interlaced=0 / bluray_compat=0 / constrained_intra=0 / bframes=10 / b_pyramid=2 / b_adapt=2 / b_bias=0 / direct=3 / weightb=1 / open_gop=0 / weightp=2 / keyint=240 / keyint_min=23 / scenecut=40 / intra_refresh=0 / rc_lookahead=40 / rc=2pass / mbtree=0 / bitrate=8600 / ratetol=1.0 / qcomp=0.60 / qpmin=0 / qpmax=69 / qpstep=4 / cplxblur=20.0 / qblur=0.5 / vbv_maxrate=50000 / vbv_bufsize=62500 / nal_hrd=none / filler=0 / ip_ratio=1.40 / pb_ratio=1.30 / aq=1:1.00
Language                    : English
Default                     : Yes
Forced                      : No

Audio #1
ID                          : 2
Format                      : AC-3
Format/Info                 : Audio Coding 3
Format settings, Endianness : Big
Codec ID                    : A_AC3
Duration                    : 1 h 53 min
Bit rate mode               : Constant
Bit rate                    : 640 kb/s
Channel(s)                  : 6 channels
Channel positions           : Front: L C R, Side: L R, LFE
Sampling rate               : 48.0 kHz
Frame rate                  : 31.250 FPS (1536 spf)
Bit depth                   : 16 bits
Compression mode            : Lossy
Stream size                 : 520 MiB (5%)
Title                       : Дублированный (Лицензия)
Language                    : Russian
Service kind                : Complete Main
Default                     : Yes
Forced                      : No

Audio #2
ID                          : 3
Format                      : DTS
Format/Info                 : Digital Theater Systems
Mode                        : 16
Format settings, Endianness : Big
Codec ID                    : A_DTS
Duration                    : 1 h 53 min
Bit rate mode               : Constant
Bit rate                    : 1 509 kb/s
Channel(s)                  : 6 channels
Channel positions           : Front: L C R, Side: L R, LFE
Sampling rate               : 48.0 kHz
Frame rate                  : 93.750 FPS (512 spf)
Bit depth                   : 24 bits
Compression mode            : Lossy
Stream size                 : 1.20 GiB (12%)
Title                       : Дублированный (Лицензия)
Language                    : Russian
Default                     : No
Forced                      : No

Audio #3
ID                          : 4
Format                      : DTS
Format/Info                 : Digital Theater Systems
Mode                        : 16
Format settings, Endianness : Big
Codec ID                    : A_DTS
Duration                    : 1 h 53 min
Bit rate mode               : Constant
Bit rate                    : 1 509 kb/s
Channel(s)                  : 6 channels
Channel positions           : Front: L C R, Side: L R, LFE
Sampling rate               : 48.0 kHz
Frame rate                  : 93.750 FPS (512 spf)
Bit depth                   : 24 bits
Compression mode            : Lossy
Stream size                 : 1.20 GiB (12%)
Language                    : English
Default                     : No
Forced                      : No

Text #1
ID                          : 5
Format                      : UTF-8
Codec ID                    : S_TEXT/UTF8
Codec ID/Info               : UTF-8 Plain Text
Title                       : Full
Language                    : Russian
Default                     : No
Forced                      : No

Text #2
ID                          : 6
Format                      : UTF-8
Codec ID                    : S_TEXT/UTF8
Codec ID/Info               : UTF-8 Plain Text
Title                       : Full
Language                    : English
Default                     : No
Forced                      : No

Menu
00:00:00.000                : en:Chapter 01
00:10:41.264                : en:Chapter 02
00:15:32.264                : en:Chapter 03
00:23:45.339                : en:Chapter 04
00:30:56.561                : en:Chapter 05
00:36:01.367                : en:Chapter 06
00:45:36.314                : en:Chapter 07
00:48:48.506                : en:Chapter 08
00:54:51.453                : en:Chapter 09
01:01:46.244                : en:Chapter 10
01:08:32.608                : en:Chapter 11
01:16:11.608                : en:Chapter 12
01:22:20.143                : en:Chapter 13
01:29:52.011                : en:Chapter 14
01:36:46.091                : en:Chapter 15
01:42:08.497                : en:Chapter 16
01:53:34.599                : en:Chapter 17



Добавлено спустя 23 минуты 43 секунды:

Кстати заметил такую вещь, на новом роутере я отключил провод и подключился к точке доступа 5 ГГц. И после этого начались фризы на тех фильмах, которые на старом роутере по проводу шли более менее без фризов. Теперь вот думаю, что можно дальше проверить?

Добавлено спустя 8 минут 6 секунд:

Ищу в LG Content Store приложение "Скорость интернета" и его там нет

Добавлено спустя 11 минут 20 секунд:

Сейчас запустил по проводу


Сначало фризов вообще не было, а потом минут через 5 фризы появились буквально каждые секунд 30, иногда реже. Смотрю через dlna plugins

Добавлено спустя 18 минут 12 секунд:

Первая картинка с подключенным проводом, вторая провод и роутера вытащил.

Добавлено спустя 1 минуту 16 секунд:

Это без провода, тормозит даже на 17 ГБ фильме. А по проводу их не было на таком фидьме
Вложения
фото сервисного меню
melandr_a

 
Сообщения: 37
Зарегистрирован: 11 янв 2018, 17:52
Благодарил (а): 2 раз.
Поблагодарили: 1 раз.
Телевизор: LG 55SJ850V

Re: Просмотр 4K видео через DLNA

Сообщение fedozzi » 11 янв 2018, 21:29

melandr_a
что-то не то с вай-фаем, сервисное меню показывает 702 мегабита, это теоретическая скорость конечно, но фильм на 88 мегабит должен проигрывать в любом случае

Добавлено спустя 5 минут 4 секунды:

попробуйте так настроить (то что зачеркнул не важно)
fedozzi

 
Сообщения: 127
Зарегистрирован: 10 янв 2018, 01:27
Благодарил (а): 54 раз.
Поблагодарили: 11 раз.
Телевизор: LG OLED65C9PLA

Re: Просмотр 4K видео через DLNA

Сообщение melandr_a » 11 янв 2018, 21:50

Сделал вот так, поменял канал на 60, а не Авто. И сейчас Джейсон Борн идет без фризов.

Добавлено спустя 8 минут 5 секунд:

Вот надыбал Анализатор трафика на роутере. Показывает пики до 18МБ/с, а это 144 Мб/с
ЗЫ: Кстати ширина канала стояла 80 МГц, я только поменял канал.
melandr_a

 
Сообщения: 37
Зарегистрирован: 11 янв 2018, 17:52
Благодарил (а): 2 раз.
Поблагодарили: 1 раз.
Телевизор: LG 55SJ850V

Re: Просмотр 4K видео через DLNA

Сообщение alexfrolkin » 11 янв 2018, 22:16

А я вот на своем Mikrotik HAP AC все никак не могу подобрать настройки wifi для просмотра 4к без тормозов :cry:
alexfrolkin

 
Сообщения: 18
Зарегистрирован: 17 дек 2017, 08:43
Благодарил (а): 7 раз.
Поблагодарили: 5 раз.
Телевизор: LG 49UJ740V

Re: Просмотр 4K видео через DLNA

Сообщение melandr_a » 11 янв 2018, 22:46

Ну на микротике настроек будет больше, чем на родной прошивке асуса.
melandr_a

 
Сообщения: 37
Зарегистрирован: 11 янв 2018, 17:52
Благодарил (а): 2 раз.
Поблагодарили: 1 раз.
Телевизор: LG 55SJ850V

Re: Просмотр 4K видео через DLNA

Сообщение fedozzi » 11 янв 2018, 23:46

alexfrolkin писал(а):А я вот на своем Mikrotik HAP AC все никак не могу подобрать настройки wifi для просмотра 4к без тормозов :cry:

А на устройстве где фильм лежит гигабитный порт?
fedozzi

 
Сообщения: 127
Зарегистрирован: 10 янв 2018, 01:27
Благодарил (а): 54 раз.
Поблагодарили: 11 раз.
Телевизор: LG OLED65C9PLA

Re: Просмотр 4K видео через DLNA

Сообщение alexfrolkin » 12 янв 2018, 09:01

fedozzi писал(а):
alexfrolkin писал(а):А я вот на своем Mikrotik HAP AC все никак не могу подобрать настройки wifi для просмотра 4к без тормозов :cry:

А на устройстве где фильм лежит гигабитный порт?


Конечно !
alexfrolkin

 
Сообщения: 18
Зарегистрирован: 17 дек 2017, 08:43
Благодарил (а): 7 раз.
Поблагодарили: 5 раз.
Телевизор: LG 49UJ740V

Пред.След.

Вернуться в Телевизоры LG - Обсуждение



 


  • Похожие темы
    Ответы
    Просмотры
    Последнее сообщение

Кто сейчас на конференции

Сейчас этот форум просматривают: нет зарегистрированных пользователей и гости: 22