Реклама показывается только незарегистрированным пользователям. Вход или Регистрация

Просмотр 4К видео через DLNA

Помощь новичкам, часто задаваемые вопросы и ответы по телевизорам LG на webOS. Новичкам читать обязательно.

Re: Просмотр 4К видео через DLNA

Сообщение tessi » 09 май 2017, 22:24

vrekota
Воспроизведение видео не зависит от размера видеофайла! Почему некоторые MKV файлы не воспроизводятся телевизором?
tessi
Лучший пользователь форума 2016
 
Сообщения: 5662
Зарегистрирован: 08 авг 2014, 11:20
Благодарил (а): 110 раз.
Поблагодарили: 536 раз.
Телевизор: LG 49UB850V 24LH480U

Re: Просмотр 4К видео через DLNA

Спонсор » 09 май 2017, 22:24

Реклама показывается только незарегистрированным пользователям. Войти или Зарегистрироваться
Спонсор

 
Сообщения: 100
Зарегистрирован: 15 июл 2014, 19:43
Благодарил (а): 0 раз.
Поблагодарили: 0 раз.

Re: Просмотр 4К видео через DLNA

Сообщение sinnbad » 09 май 2017, 22:47

мои результаты, для ТВ 2016г

sinnbad @ Телевизор LG UH950V (55, 65") 2016 года
sinnbad

 
Сообщения: 18
Зарегистрирован: 28 мар 2017, 15:46
Благодарил (а): 1 раз.
Поблагодарили: 4 раз.
Телевизор: 65uh950v

Re: Просмотр 4К видео через DLNA

Сообщение RR163 » 20 май 2017, 08:53

У меня на UH671V 4К с компа через LG Smart Share великолепно проигрывается по стомегабитной сети (по проводу) встроенным плеером. Самое "жирное" пока из того что смотрел в 4К это h264 57,5 Mbit.

Код: Выделить всё
 General
      Unique ID : 239044714361046079016856282906809324110 (0xB3D6565C257DA08E864C89A3173BD24E)
      Complete name : E:\Video\Кино\HEVC\4K\The Martian (2015) 2160p Ultra HD Blu-ray DTS-HD MA 7.1 x264.mkv
      Format : Matroska
      Format version : Version 4 / Version 2
      File size : 56.9 GiB
      Duration : 2h 21mn
      Overall bit rate mode : Variable
      Overall bit rate : 57.5 Mbps
      Encoded date : UTC 2016-03-09 08:59:48
      Writing application : mkvmerge v6.9.1 ('Blue Panther') 64bit built on Apr 18 2014 18:23:38
      Writing library : libebml v1.3.0 + libmatroska v1.4.1
   Video #1
      ID : 1
      Format : AVC
      Format/Info : Advanced Video Codec
      Format profile : High@L5.1
      Format settings, CABAC : Yes
      Format settings, ReFrames : 5 frames
      Codec ID : V_MPEG4/ISO/AVC
      Duration : 2h 21mn
      Width : 3 840 pixels
      Height : 1 600 pixels
      Display aspect ratio : 2.40:1
      Frame rate mode : Constant
      Frame rate : 23.976 fps
      Color space : YUV
      Chroma subsampling : 4:2:0
      Bit depth : 8 bits
      Scan type : Progressive
      Writing library : x264 core 148 r2638 7599210
      Encoding settings : cabac=1 / ref=5 / deblock=1:-1:-1 / analyse=0x3:0x133 / me=umh / subme=10 / psy=1 / psy_rd=1.00:0.15 / mixed_ref=1 / me_range=48 / chroma_me=1 / trellis=2 / 8x8dct=1 / cqm=0 / deadzone=21,11 / fast_pskip=1 / chroma_qp_offset=-3 / threads=12 / lookahead_threads=2 / sliced_threads=0 / nr=0 / decimate=0 / interlaced=0 / bluray_compat=0 / constrained_intra=0 / bframes=8 / b_pyramid=2 / b_adapt=2 / b_bias=0 / direct=3 / weightb=1 / open_gop=0 / weightp=2 / keyint=240 / keyint_min=23 / scenecut=40 / intra_refresh=0 / rc_lookahead=60 / rc=crf / mbtree=1 / crf=17.0 / qcomp=0.70 / qpmin=0 / qpmax=69 / qpstep=4 / vbv_maxrate=300000 / vbv_bufsize=300000 / crf_max=0.0 / nal_hrd=none / filler=0 / ip_ratio=1.40 / aq=1:0.90
      Default : Yes
      Forced : No
   Audio #2
      ID : 2
      Format : DTS
      Format/Info : Digital Theater Systems
      Mode : 16
      Format settings, Endianness : Big
      Codec ID : A_DTS
      Duration : 2h 21mn
      Bit rate mode : Constant
      Bit rate : 768 Kbps
      Channel(s) : 6 channels
      Channel positions : Front: L C R, Side: L R, LFE
      Sampling rate : 48.0 KHz
      Bit depth : 24 bits
      Compression mode : Lossy
      Stream size : 778 MiB (1%)
      Language : Russian
      Default : Yes
      Forced : No
   Audio #3
      ID : 3
      Format : AC-3
      Format/Info : Audio Coding 3
      Mode extension : CM (complete main)
      Format settings, Endianness : Big
      Codec ID : A_AC3
      Duration : 2h 21mn
      Bit rate mode : Constant
      Bit rate : 640 Kbps
      Channel(s) : 6 channels
      Channel positions : Front: L C R, Side: L R, LFE
      Sampling rate : 48.0 KHz
      Compression mode : Lossy
      Stream size : 648 MiB (1%)
      Language : Russian
      Default : No
      Forced : No
   Audio #4
      ID : 4
      Format : DTS
      Format/Info : Digital Theater Systems
      Format profile : MA / Core
      Mode : 16
      Format settings, Endianness : Big
      Codec ID : A_DTS
      Duration : 2h 21mn
      Bit rate mode : Variable
      Bit rate : Unknown / 1 509 Kbps
      Channel(s) : 8 channels / 6 channels
      Channel positions : Front: L C R, Side: L R, Back: L R, LFE / Front: L C R, Side: L R, LFE
      Sampling rate : 48.0 KHz
      Bit depth : 24 bits
      Compression mode : Lossless / Lossy
      Language : Russian
      Default : No
      Forced : No
   Audio #5
      ID : 5
      Format : AC-3
      Format/Info : Audio Coding 3
      Mode extension : CM (complete main)
      Format settings, Endianness : Big
      Codec ID : A_AC3
      Duration : 2h 21mn
      Bit rate mode : Constant
      Bit rate : 640 Kbps
      Channel(s) : 6 channels
      Channel positions : Front: L C R, Side: L R, LFE
      Sampling rate : 48.0 KHz
      Compression mode : Lossy
      Stream size : 648 MiB (1%)
      Language : Russian
      Default : No
      Forced : No
   Audio #6
      ID : 6
      Format : DTS
      Format/Info : Digital Theater Systems
      Mode : 16
      Format settings, Endianness : Big
      Codec ID : A_DTS
      Duration : 2h 21mn
      Bit rate mode : Constant
      Bit rate : 755 Kbps
      Channel(s) : 6 channels
      Channel positions : Front: L C R, Side: L R, LFE
      Sampling rate : 48.0 KHz
      Bit depth : 24 bits
      Compression mode : Lossy
      Stream size : 764 MiB (1%)
      Language : Russian
      Default : No
      Forced : No
   Audio #7
      ID : 7
      Format : AC-3
      Format/Info : Audio Coding 3
      Mode extension : CM (complete main)
      Format settings, Endianness : Big
      Codec ID : A_AC3
      Duration : 2h 21mn
      Bit rate mode : Constant
      Bit rate : 640 Kbps
      Channel(s) : 6 channels
      Channel positions : Front: L C R, Side: L R, LFE
      Sampling rate : 48.0 KHz
      Compression mode : Lossy
      Stream size : 648 MiB (1%)
      Language : Russian
      Default : No
      Forced : No
   Audio #8
      ID : 8
      Format : AC-3
      Format/Info : Audio Coding 3
      Mode extension : CM (complete main)
      Format settings, Endianness : Big
      Codec ID : A_AC3
      Duration : 2h 21mn
      Bit rate mode : Constant
      Bit rate : 448 Kbps
      Channel(s) : 6 channels
      Channel positions : Front: L C R, Side: L R, LFE
      Sampling rate : 48.0 KHz
      Compression mode : Lossy
      Stream size : 454 MiB (1%)
      Language : Ukrainian
      Default : No
      Forced : No
   Audio #9
      ID : 9
      Format : DTS
      Format/Info : Digital Theater Systems
      Format profile : MA / Core
      Mode : 16
      Format settings, Endianness : Big
      Codec ID : A_DTS
      Duration : 2h 21mn
      Bit rate mode : Variable
      Bit rate : Unknown / 1 509 Kbps
      Channel(s) : 8 channels / 6 channels
      Channel positions : Front: L C R, Side: L R, Back: L R, LFE / Front: L C R, Side: L R, LFE
      Sampling rate : 48.0 KHz
      Bit depth : 24 bits
      Compression mode : Lossless / Lossy
      Language : English
      Default : No
      Forced : No
   Text #10
      ID : 10
      Format : PGS
      Muxing mode : zlib
      Codec ID : S_HDMV/PGS
      Codec ID/Info : Picture based subtitle format used on BDs/HD-DVDs
      Language : Russian
      Default : Yes
      Forced : No
   Text #11
      ID : 11
      Format : PGS
      Muxing mode : zlib
      Codec ID : S_HDMV/PGS
      Codec ID/Info : Picture based subtitle format used on BDs/HD-DVDs
      Language : Russian
      Default : No
      Forced : No
   Text #12
      ID : 12
      Format : PGS
      Muxing mode : zlib
      Codec ID : S_HDMV/PGS
      Codec ID/Info : Picture based subtitle format used on BDs/HD-DVDs
      Language : English
      Default : No
      Forced : No
   Text #13
      ID : 13
      Format : PGS
      Muxing mode : zlib
      Codec ID : S_HDMV/PGS
      Codec ID/Info : Picture based subtitle format used on BDs/HD-DVDs
      Language : English
      Default : No
      Forced : No

За это сообщение автора RR163 поблагодарил:
Архивариус (20 май 2017, 12:42)
RR163

 
Сообщения: 9
Зарегистрирован: 19 май 2017, 19:50
Откуда: Тольятти
Благодарил (а): 0 раз.
Поблагодарили: 1 раз.
Телевизор: LG 43UH671V

Re: Просмотр 4К видео через DLNA

Сообщение inse0f » 11 июн 2017, 00:59

RR163 писал(а):У меня на UH671V 4К с компа через LG Smart Share великолепно проигрывается по стомегабитной сети (по проводу) встроенным плеером. Самое "жирное" пока из того что смотрел в 4К это h264 57,5 Mbit.

делали какие-то специальные настройки?
inse0f

 
Сообщения: 101
Зарегистрирован: 15 мар 2015, 22:59
Благодарил (а): 3 раз.
Поблагодарили: 9 раз.
Телевизор: LG OLED 55B6V

Re: Просмотр 4К видео через DLNA

Сообщение RR163 » 12 июн 2017, 09:57

специальные настройки?

Нет. Просто на ПК установил LG Smart Share и дал ему папки c контентом. Всё.
RR163

 
Сообщения: 9
Зарегистрирован: 19 май 2017, 19:50
Откуда: Тольятти
Благодарил (а): 0 раз.
Поблагодарили: 1 раз.
Телевизор: LG 43UH671V

Re: Просмотр 4К видео через DLNA

Сообщение inse0f » 12 июн 2017, 14:42

RR163
Да, у меня заработало тоже, единственное неудобство LG Smart Share - нет возможности автообновление папки поставить (или я не нашел)
inse0f

 
Сообщения: 101
Зарегистрирован: 15 мар 2015, 22:59
Благодарил (а): 3 раз.
Поблагодарили: 9 раз.
Телевизор: LG OLED 55B6V

Re: Просмотр 4К видео через DLNA

Сообщение Архивариус » 16 сен 2017, 15:56

Cсылка на видео, на котором на LG E6V клиентом Plex проигрывается 4k HDR видео.


В начале проигрывания ролика в верхнем правом углу экрана всплывает надпись HDR.
А это картинка загрузки процессора NAS QNAP TS-653 при воспроизведении 4k HDR видео через Plex

По ничтожной загрузке процессора можно предположить, что NAS в этот момент ничего не перекодирует.
взято отсюда http://forum.ixbt.com/topic.cgi?id=62:22663-119#9287

p.s. однако не все так хорошо, есть варианты форматы видео 4K, которые клиент Plex проиграть не сможет.

https://support.plex.tv/hc/en-us/articl ... -supported
-----4K (UHD) Direct Play Video Support-----
Some 4K (ultra high definition) devices are recognized by the Plex app. We're working to bring 4K playback support to other devices, too. 4K/UHD content matching the following will Direct Play on supported devices:
Container: MP4
Resolution: 3840x2160 or smaller
Video Encoding: HEVC (H.265)
Video Frame Rate: 30fps
Video Bit Depth: 8
Содержимое 4K, не соответствующее указанным выше свойствам, будет транскодировано до 1080p. Транскодирование контента 4K является очень интенсивным процессом и потребует мощного компьютера, на котором работает Plex Media Server.
Архивариус

 
Сообщения: 4437
Зарегистрирован: 29 июл 2010, 21:22
Благодарил (а): 411 раз.
Поблагодарили: 541 раз.
Телевизор: LG 55UB950 24MT57S

Re: Просмотр 4К видео через DLNA

Сообщение digitalex » 16 ноя 2017, 15:26

ТВ - 55UH671V
Стоял роутер Tp-link - тормоза были даже на FHD

Поставил роутер Zyxel Kinetic Ultra
Комп подключен по гигабитному шнурку (DNLA встроенный в Windows 10)
ТВ по WiFi 5ГГц - 270 Мбит....

Теперь любое 4К без тормозов :-)
Проверял на роликах с http://4kmedia.org/ (битрейт до 80 Мбит)

P.S.Провайдер провайдер до кучи предлагает интернет до 300 Мбит )))))
digitalex

 
Сообщения: 1
Зарегистрирован: 16 ноя 2017, 15:15
Благодарил (а): 0 раз.
Поблагодарили: 0 раз.

Пред.

Вернуться в webOS-телевизоры - Помощь



 


  • Похожие темы
    Ответы
    Просмотры
    Последнее сообщение

Кто сейчас на конференции

Сейчас этот форум просматривают: нет зарегистрированных пользователей и гости: 1