Реклама показывается только незарегистрированным пользователям. Вход или Регистрация

Cаундбар LG SK9Y (5.1.2, 500 Вт, Dolby Atmos) 2018 года

3D очки, беспроводные клавиатуры, веб-камеры, HDMI кабели, Wi-Fi адаптеры, настенные крепления, спутниковые тюнеры, медиа-плееры, смарт тв приставки и прочие дополнительные компоненты для телевизоров LG с webOS. Где купить и как пользоваться приставками для смарт тв.

Re: Cаундбар LG SK9Y (5.1.2, 500 Вт, Dolby Atmos) 2018 года

Сообщение ISB_032 » 26 мар 2020, 13:23

Chito писал(а):Ребят, Кто сталкивался, взял саундбар LG sk9y подключил по HDMI, проблема в том, что тв, после выкл - вкл, бывает не видит ARC, пишет OPTICAL, (пробовал 3 кабеля HDMI все High speed, но разные производители, проблема сохраняется) уже голову сломал, заметил особенность, если остальные HDMI кабеля не подключены, то вроде как после включения быстро переключается на ARC, а если задействованы (у меня подключена приставка XIOMI MI BOX s, PS4, ну и саундбар) то саундбар пишет подключение OPTICAL, при чем через пульт от тв могу менять громкость, но звука нет, приходится отсоединять, потом присоединять кабель HDMI, тогда переводит на ARC

И ещё вопрос стоит ли PS4 подключать напрямую к саундбару, будет ли лучше звук, сЕйчас подключено ТВ-HDMI-Сб, ТВ-HDMI-PS4 Тв у меня LGc9


1) Такой проблемы нет. Посмотрите настройки ARC в своем TV. У меня лишь иногда при включении TV пропадает звук при смене приложений, но это софт и лечится перезапуском приложения (android 7).

2) Звук не изменится и не станет лучше. Убедитесь что у Вас в TV звук идет в bitstream, а в звуковых настройках PS4, PCM заменен на Dolby/DTS.

Подключение напрямую необходимо в случае, если вы смотрите с консоли blu ray и TV не может пропустить TrueHD (не сжатый звук в bitstream).
Если все же есть потребность вывода TrueHD используйте вашу схему за исключением: TV - HDMI - SK9Y (HDMI Out)
т.к. у SK9
HDMI ARC - проводит сжатый 7.1 + управление с пульта
HDMI Out - проводит все заявленное производителем (вкл TrueHD)

Для игр и просмотра фильмов (Netflix, OKKO) Вам ничего менять не нужно.
ISB_032

 
Сообщения: 3
Зарегистрирован: 18 мар 2020, 14:12
Благодарил (а): 0 раз.
Поблагодарили: 0 раз.
Телевизор: Sony 43W805C
Звук: LG SK9Y

Re: Cаундбар LG SK9Y (5.1.2, 500 Вт, Dolby Atmos) 2018 года

Спонсор » 26 мар 2020, 13:23

Реклама показывается только незарегистрированным пользователям. Войти или Зарегистрироваться
Спонсор

 
Сообщения: 100
Зарегистрирован: 15 июл 2014, 19:43
Благодарил (а): 0 раз.
Поблагодарили: 0 раз.

Re: Cаундбар LG SK9Y (5.1.2, 500 Вт, Dolby Atmos) 2018 года

Сообщение Chito » 27 мар 2020, 11:54

Саундбар Lg SK9y
И ещё к знатокам, вообщем приобрёл тыловые колонки SPK8-s
1) подскажите настенный кронштейн для колонок (не думал что найти их так сложно) они ппц маленькие, желательно чтоб вращались вокруг своей оси, типо VLK AK20 (но этот кронштейн вроде для больших колонок)
2) колонками доволен, игры, музыка или фильмы 5.1 (огонь), но вот в DOLBY ATMOS не пойму, особенно в Ведьмаке на Netflix (Dolby Atmos), что с тылами, что без, звук один, они на столько приглушенно работают, что будто выкл (подключено вроде все верно, на саундбаре отображается Dolby Atmos, через приложение wi-fi speaker увеличил тылы до +6db, разницы особо нет.
3) подскажите какими настройками пользуетесь:центральный динамик, верхние, саб, тылы
И нравится по больше баса по этому Н. Ч. Увеличил до + 3 и сабвуфер +2 правильно?
4) в каких приложения, каким режимом пользуетесь типо в фильмах (фильм) в играх PS4 (фильм ставлю), а в ютуб не разобрался?
Chito

 
Сообщения: 10
Зарегистрирован: 25 мар 2020, 11:09
Благодарил (а): 0 раз.
Поблагодарили: 0 раз.
Телевизор: Lg55C9
Звук: Lg SK9Y + SPK8

Re: Cаундбар LG SK9Y (5.1.2, 500 Вт, Dolby Atmos) 2018 года

Сообщение narpol » 27 мар 2020, 12:22

Chito
но вот в DOLBY ATMOS не пойму, особенно в Ведьмаке на Netflix (Dolby Atmos), что с тылами, что без, звук один, они на столько приглушенно работают, что будто выкл (подключено вроде все верно, на саундбаре отображается Dolby Atmos, через приложение wi-fi speaker увеличил тылы до +6db, разницы особо нет.
Там нет выделенных тыловых каналов звука (он 5.1 в основе), вот его реализация
Аудио # 1
Идентификатор: 2
Формат: E-AC-3
Формат / Информация: улучшенное кодирование звука 3
Профиль формата: E-AC-3 + Atmos / E-AC-3
Идентификатор кодека: A_EAC3
Продолжительность: 1 ч.1 м
Вид битрейта: Постоянный
Битрейт: 768 Кбит / сек
Каналы: 15 объектов / 6 каналов
Расположение каналов: 15 объектов / Фронт: LCR, Сторона: LR, LFE
Частота: 48,0 КГц
Частота кадров: 187 500 кадров / сек (256 SPF)
Метод сжатия: С потерями
Размер потока: 336 Мбайт (4%)
Подавая руку помощи не забудь увернуться от пинка благодарности ;)
narpol

 
Сообщения: 4827
Зарегистрирован: 27 июл 2017, 10:13
Откуда: РФ, РКС
Благодарил (а): 212 раз.
Поблагодарили: 1027 раз.
Телевизор: LG 43UJ740V [replaced] LG 49SM9000

Re: Cаундбар LG SK9Y (5.1.2, 500 Вт, Dolby Atmos) 2018 года

Сообщение kmz777 » 27 мар 2020, 14:28

Chito писал(а):подскажите настенный кронштейн для колонок
Должен подойти: HOLDER LSS-6001
https://market.yandex.ru/product--krons ... /436497183
Chito писал(а):подскажите какими настройками пользуетесь:центральный динамик, верхние, саб, тылы
Chito писал(а):в каких приложения, каким режимом пользуетесь типо в фильмах (фильм) в играх PS4 (фильм ставлю), а в ютуб не разобрался?
Всегда режим "Кино", суррауд выключен. Центр +1, Верх 0, Саб +1, Тылы +4. Низкие частоты 0, Высокие частоты +4

Кажется понял почему с доп. тылами идёт небольшая каша и нет нормального объёма т.к. и тылы на баре и доп. тылы регулируются одновременно из-за этого слышен тыл спереди соответственно он перемешивается с фронтом. Жаль что разработчики не продумали отключение переднего тыла на баре при подключении доп. тылов.
На днях поиграл на PS4 в Control (сейчас хорошая скидка на него в PS сторе) и блин реально 5.1 хорошо ощущается и атмосфера передаётся благодаря тылам очень не плохо. Всё таки, много зависит от контента, видно когда звукорежиссер постарался :)
kmz777

 
Сообщения: 15
Зарегистрирован: 23 дек 2019, 15:35
Благодарил (а): 3 раз.
Поблагодарили: 0 раз.
Телевизор: LG OLED55B8S
Звук: LG SK9Y + LG SPK8 2.0

Re: Cаундбар LG SK9Y (5.1.2, 500 Вт, Dolby Atmos) 2018 года

Сообщение Chito » 29 мар 2020, 11:54

kmz777 писал(а):
Chito писал(а):подскажите настенный кронштейн для колонок
Должен подойти: HOLDER LSS-6001
https://market.yandex.ru/product--krons ... /436497183

Дружище, спасибо за кронштейн настенный 400р и проблема решена)))

Добавлено спустя 8 минут 37 секунд:

Вот кстате подсказали, как нужно настраивать звук с помощью Шумомера iOS или андроид и теста долбий https://youtu.be/lyegybk8hzI
Качаете 5.1.2 Dolby Atmos Test Tones
https://yadi.sk/i/t1Td6SGFnBuIfw
Сбрасываете все Настройки на баре в 0
Садитесь там где обычно смотрите ТВ, скачиваете на смартфон программу Шумомер
ios: https://apps.apple.com/ru/app/%D1%88%D1 ... 1227650795
android: https://play.google.com/store/apps/deta ... eter&hl=ru
Запускаете тестовый ролик, делаете звук погромче и держите телефон с включенной программой на уровне лица.
Настраиваете, чтоб со всех каналов был одинаковый звук д. б
Рекомендую всем у кого СБ + тылы, или домашний кинотеатр
Chito

 
Сообщения: 10
Зарегистрирован: 25 мар 2020, 11:09
Благодарил (а): 0 раз.
Поблагодарили: 0 раз.
Телевизор: Lg55C9
Звук: Lg SK9Y + SPK8

Re: Cаундбар LG SK9Y (5.1.2, 500 Вт, Dolby Atmos) 2018 года

Сообщение narpol » 29 мар 2020, 12:12

kmz777 писал(а):Кажется понял почему с доп. тылами идёт небольшая каша и нет нормального объёма т.к. и тылы на баре и доп. тылы регулируются одновременно из-за этого слышен тыл спереди соответственно он перемешивается с фронтом. Жаль что разработчики не продумали отключение переднего тыла на баре при подключении доп. тылов.
Да все это потому, что нет (точнее крайне редко реализуюются) выделенных ТЫЛОВЫЕ/BACK каналы в 5.1-звуке DD/DT-звуке. Само собой, декодер в саундбаре понимает их как надо - т. е. боковые/SIDE и так же выдает (для него в этом случае эти 2 дополнительных излучателя - это те же самые канала объемного звучания). Возьмите звук, реализованный по схеме 7.1 объемный, и там отдельно должны зазвучать исходно выделенные тылы
Вложения
Последний раз редактировалось narpol 29 мар 2020, 12:46, всего редактировалось 1 раз.
Подавая руку помощи не забудь увернуться от пинка благодарности ;)
narpol

 
Сообщения: 4827
Зарегистрирован: 27 июл 2017, 10:13
Откуда: РФ, РКС
Благодарил (а): 212 раз.
Поблагодарили: 1027 раз.
Телевизор: LG 43UJ740V [replaced] LG 49SM9000

Re: Cаундбар LG SK9Y (5.1.2, 500 Вт, Dolby Atmos) 2018 года

Сообщение Chito » 29 мар 2020, 12:17

narpol писал(а):Chito
но вот в DOLBY ATMOS не пойму, особенно в Ведьмаке на Netflix (Dolby Atmos), что с тылами, что без, звук один, они на столько приглушенно работают, что будто выкл (подключено вроде все верно, на саундбаре отображается Dolby Atmos, через приложение wi-fi speaker увеличил тылы до +6db, разницы особо нет.
Там нет выделенных тыловых каналов звука (он 5.1 в основе), вот его реализация
Аудио # 1
Идентификатор: 2
Формат: E-AC-3
Формат / Информация: улучшенное кодирование звука 3
Профиль формата: E-AC-3 + Atmos / E-AC-3
Идентификатор кодека: A_EAC3
Продолжительность: 1 ч.1 м
Вид битрейта: Постоянный
Битрейт: 768 Кбит / сек
Каналы: 15 объектов / 6 каналов
Расположение каналов: 15 объектов / Фронт: LCR, Сторона: LR, LFE
Частота: 48,0 КГц
Частота кадров: 187 500 кадров / сек (256 SPF)
Метод сжатия: С потерями
Размер потока: 336 Мбайт (4%)


Спасибо за инфу, а как смотрите реализацию?
Chito

 
Сообщения: 10
Зарегистрирован: 25 мар 2020, 11:09
Благодарил (а): 0 раз.
Поблагодарили: 0 раз.
Телевизор: Lg55C9
Звук: Lg SK9Y + SPK8

Re: Cаундбар LG SK9Y (5.1.2, 500 Вт, Dolby Atmos) 2018 года

Сообщение narpol » 29 мар 2020, 12:43

Chito
Обычно (на адекватных трекерах) есть прямо на странице раздачи инфо-файл (или что-то типа по названию), в любом случае можно глянуть самостоятельно с помощью программы MediaInfo
Подавая руку помощи не забудь увернуться от пинка благодарности ;)
narpol

 
Сообщения: 4827
Зарегистрирован: 27 июл 2017, 10:13
Откуда: РФ, РКС
Благодарил (а): 212 раз.
Поблагодарили: 1027 раз.
Телевизор: LG 43UJ740V [replaced] LG 49SM9000

Re: Cаундбар LG SK9Y (5.1.2, 500 Вт, Dolby Atmos) 2018 года

Сообщение Chito » 29 мар 2020, 23:36

Почему мой саундбар Lgsk9 не видит прямого подключения к xiaomi mi box s, к PS4 подключал напрямую все ок, а андроид приставку не видит пробовал разные кабеля, толку ноль ((и читает ли xiaomi mi true hd?
И можно ссылку на ролики DOLBY ATMOS (типо как в YouTube)
Chito

 
Сообщения: 10
Зарегистрирован: 25 мар 2020, 11:09
Благодарил (а): 0 раз.
Поблагодарили: 0 раз.
Телевизор: Lg55C9
Звук: Lg SK9Y + SPK8

Re: Cаундбар LG SK9Y (5.1.2, 500 Вт, Dolby Atmos) 2018 года

Сообщение dimx21 » 29 мар 2020, 23:50

Chito писал(а):И можно ссылку на ролики DOLBY ATMOS (типо как в YouTube)

https://thedigitaltheater.com/dolby-trailers/
LG OLED65C9 | Sony STR-DH790 + акустика 5.1.2 Dolby Atmos
dimx21

 
Сообщения: 41
Зарегистрирован: 24 фев 2020, 09:58
Благодарил (а): 6 раз.
Поблагодарили: 7 раз.
Телевизор: LG OLED65C9
Звук: Sony STR-DH790 + акустика 5.1.2

Пред.След.

Вернуться в Аксессуары и внешние устройства



 


  • Похожие темы
    Ответы
    Просмотры
    Последнее сообщение

Кто сейчас на конференции

Сейчас этот форум просматривают: нет зарегистрированных пользователей и гости: 0